Карл Мария фон Вебер - Вольный стрелок (Дрезденская государственная опера; Аксель Кёлер, Кристиан Тилеман) / Carl Maria von Weber - Der Freischutz (Semperoper Dresden; Axel Kohler, Christian Thielemann; Jakubiak) [2015, Opera, Blu-ray 1080i]


 

[Цитировать]

Вебер - Вольный стрелок / Carl Maria von Weber - Der Freischutz
Год выпуска: 2015
Лейбл: C MAJOR, Unetel Classica
Страна-производитель: США
Жанр: Opera
Продолжительность: 02:29:19
Язык: Немецкий
Режиссер: Axel Köhler (Аксель Кёлер)
Дирижер: Christian Thielemann (Кристиан Тилеман)
Исполнители:
Sara Jakubiak (Сара Якубяк) - Agathe,
Christina Landshamer (Кристина Ландсхамер) - Aennchen,
Georg Zeppenfeld (Георг Зеппенфельд) - Kaspar,
Michael König (Михаэль Кёниг) - Max,
Adrian Eröd (Адриан Эрёд) - Ottakar,
Albert Dohmen (Альберт Домен) - Kuno,
Andreas Bauer (Андрей Бауэр) - Hermit,
Sebastian Wartig (Себастьян Вартиг) - Kilian
Staatskapelle Dresden (Дрезденская государственная капелла), Sächsischer Staatsopernchor Dresden (хор Дрезденской государственной оперы)
Описание: «Вольный стрелок» (нем. Der Freischütz; в русском переводе также неточно — «Волшебный стрелок») — романтическая опера Карла Марии фон Вебера, либретто Иоганна Фридриха Кинда по одноименной новелле Иоганна Августа Апеля и Фридриха Лауна.
Премьера состоялась 18 июня 1821 года в Берлинском драматическом театре, под управлением автора. Далее последовали постановки в Карлсруэ, Лейпциге, Франкфурте-на-Майне (1821), под управлением автора — в Дрездене (1822), затем опера обошла сцены всей Европы. В России она была впервые исполнена в 1823 г. артистами немецкой труппы; на русской сцене (под названием «Волшебный стрелок») — 12 мая 1824 года в Петербурге под управлением К. Кавоса. С конца 1820-х годов партию Каспара исполнял В. Самойлов, а с 1830-х гг. — О. Петров. Оперу часто называют «первой немецкой национальной оперой».

Оригинальное описание

Axel Köhler’s production of Der Freischütz at the Dresden State Opera was described by Die Presse as “a minor miracle in Dresden”. In the words of the Salzburger Nachrichten, Köhler “scored a bulleye” with his sombre and satanic interpretation of Weber’s Romantic opera about love, temptation, souls sold to the Devil, obsession and faith. According to the Financial Times, Christian Thielemann and the Dresden Staatskapelle conjured up a sense of “mortal terror from the orchestra pit. […] Thielemann is in command of every detail. That makes for utterly gripping listening.”
Kaum eine andere Opernproduktion wurde in diesem Jahr mehr diskutiert als "Der Freischütz" aus der Dresdner Semperoper. Ideal besetzt mit u.a. Adrian Eröd, Christina Landshamer, Michael König und dirigiert von Christian Thielemann, war die Inszenierung eines der Top-Ereignisse des zurückliegenden Opernjahres. Dabei sorgte vor allem die konsequent düstere und unheimliche Atmosphäre für Gesprächsstoff, die Choreograph Axel Köhler dieser Oper angedeihen ließ. Köhler steht damit in konsequenter Tradition zum Ursprung des Opernstoffes, denn auch zur Entstehungszeit der Oper wurde das Stück als musikalisches Pendant zur damals modernen Schauerliteratur betrachtet. "Die Presse" feierte die Aufführung als "Dresdner Wunder", das Publikum war begeistert und sorgte für ausverkaufte Veranstaltungen. Kein Zweifel: Wer diesen "Freischütz" verpasst hat, hat eines der großen Opernereignisse 2015 nicht gesehen. Gut, dass es diese DVD/Blu-Ray nun gibt, um Versäumtes nachzuholen oder Erlebtes immer wieder zu erleben.
Recorded live at Semperoper Dresden, Germany, 29/04-03/05 2015.
Об опере
Бонус: Анонсы дисков с операми (00:01:26, 00:01:39, 00:02:11, 00:01:15, 00:03:23)
Качество видео: Blu-ray
Формат/Контейнер: BDMV
Видео кодек: MPEG4
Аудио кодек: LPCM, DTS
Видео поток: 1920x1080i, MPEG-4 Video, 29.970 fps, 16:9, 29956 kbps
Аудио поток 1: LPCM, 2 ch, 48 kHz, 24-bit, 2304 kbps
Аудио поток 2: DTS-HD MA, 5 ch, 48 kHz, 24-bit, 3484 kbps (DTS Core: 5.0 / 48 kHz / 1509 kbps / 24-bit)
Субтитры: Английские, немецкие, французские, испанские, китайские, корейские, японские

BD-Info

Disc Title: Вебер - Вольный стрелок (Semperoper Dresden; Christian Thielemann) (2015) (Blu-ray 1080i, AVC, DTS-HD 5.0)
Disc Size: 44 246 652 395 bytes
Protection: AACS
BD-Java: No
BDInfo: 0.5.8
Notes:
BDINFO HOME:
Cinema Squid
http://www.cinemasquid.com/blu-ray/tools/bdinfo
INCLUDES FORUMS REPORT FOR:
AVS Forum Blu-ray Audio and Video Specifications Thread
http://www.avsforum.com/avs-vb/showthread.php?t=1155731
********************
PLAYLIST: 00003.MPLS
********************
<--- BEGIN FORUMS PASTE --->
Total   Video
Title                                                           Codec   Length  Movie Size      Disc Size       Bitrate Bitrate Main Audio Track                          Secondary Audio Track
-----                                                           ------  ------- --------------  --------------  ------- ------- ------------------                        ---------------------
00003.MPLS                                                      AVC     2:29:19 42 300 979 200  44 246 652 395  37,77   29,96   LPCM 2.0 2304Kbps (48kHz/24-bit)          DTS-HD Master 5.0 3484Kbps (48kHz/24-bit)
DISC INFO:
[br]
Disc Title:     Вебер - Вольный стрелок (Semperoper Dresden; Christian Thielemann) (2015) (Blu-ray 1080i, AVC, DTS-HD 5.0)
Disc Size:      44 246 652 395 bytes
Protection:     AACS
BD-Java:        No
BDInfo:         0.5.8
[br]
PLAYLIST REPORT:
[br]
Name:                   00003.MPLS
Length:                 2:29:19.050 (h:m:s.ms)
Size:                   42 300 979 200 bytes
Total Bitrate:          37,77 Mbps
[br]
VIDEO:
[br]
Codec                   Bitrate             Description
-----                   -------             -----------
MPEG-4 AVC Video        29956 kbps          1080i / 29,970 fps / 16:9 / High Profile 4.1
[br]
AUDIO:
[br]
Codec                           Language        Bitrate         Description
-----                           --------        -------         -----------
LPCM Audio                      German          2304 kbps       2.0 / 48 kHz / 2304 kbps / 24-bit
DTS-HD Master Audio             German          3484 kbps       5.0 / 48 kHz / 3484 kbps / 24-bit (DTS Core: 5.0 / 48 kHz / 1509 kbps / 24-bit)
[br]
SUBTITLES:
[br]
Codec                           Language        Bitrate         Description
-----                           --------        -------         -----------
Presentation Graphics           German          10,308 kbps
Presentation Graphics           English         16,436 kbps
Presentation Graphics           French          15,657 kbps
Presentation Graphics           Spanish         17,460 kbps
Presentation Graphics           Chinese         14,309 kbps
Presentation Graphics           Korean          13,923 kbps
Presentation Graphics           Japanese        12,023 kbps
[br]
FILES:
[br]
Name            Time In         Length          Size            Total Bitrate
----            -------         ------          ----            -------------
00007.M2TS      0:00:00.000     2:29:04.001     42 292 955 136  37 829
00006.M2TS      2:29:04.001     0:00:09.042     4 823 040       4 267
00001.M2TS      2:29:13.044     0:00:06.006     3 201 024       4 264
[br]
CHAPTERS:
[br]
Number          Time In         Length          Avg Video Rate  Max 1-Sec Rate  Max 1-Sec Time  Max 5-Sec Rate  Max 5-Sec Time  Max 10Sec Rate  Max 10Sec Time  Avg Frame Size  Max Frame Size  Max Frame Time
------          -------         ------          --------------  --------------  --------------  --------------  --------------  --------------  --------------  --------------  --------------  --------------
1               0:00:00.000     0:02:09.529     30 015 kbps     34 296 kbps     00:00:08.241    30 780 kbps     00:00:00.100    30 397 kbps     00:00:01.201    125 156 bytes   471 172 bytes   00:00:20.019
2               0:02:09.529     0:10:23.222     30 000 kbps     36 087 kbps     00:06:28.354    31 485 kbps     00:09:45.885    30 650 kbps     00:09:40.846    125 124 bytes   390 311 bytes   00:09:15.988
3               0:12:32.752     0:01:25.218     30 004 kbps     34 264 kbps     00:12:57.710    30 836 kbps     00:12:53.706    30 514 kbps     00:12:48.701    125 142 bytes   371 281 bytes   00:12:58.444
4               0:13:57.970     0:01:46.406     30 000 kbps     33 965 kbps     00:15:29.295    30 970 kbps     00:15:25.291    30 341 kbps     00:15:20.286    125 126 bytes   356 021 bytes   00:15:30.029
5               0:15:44.376     0:02:27.413     30 002 kbps     33 068 kbps     00:17:17.035    30 754 kbps     00:17:12.898    30 363 kbps     00:17:07.993    125 132 bytes   359 643 bytes   00:17:47.332
6               0:18:11.790     0:03:08.721     30 001 kbps     33 330 kbps     00:18:12.057    30 597 kbps     00:18:18.330    30 312 kbps     00:19:39.044    125 128 bytes   403 722 bytes   00:18:44.823
7               0:21:20.512     0:06:38.798     29 999 kbps     35 047 kbps     00:27:25.977    30 997 kbps     00:27:21.973    30 491 kbps     00:27:16.968    125 121 bytes   363 047 bytes   00:26:08.533
8               0:27:59.310     0:00:16.649     30 031 kbps     31 895 kbps     00:28:05.617    30 431 kbps     00:28:05.650    30 245 kbps     00:28:05.950    125 256 bytes   312 678 bytes   00:28:15.960
9               0:28:15.960     0:01:27.153     29 995 kbps     33 630 kbps     00:29:11.049    30 704 kbps     00:29:07.112    30 276 kbps     00:28:52.597    125 105 bytes   312 691 bytes   00:28:19.697
10              0:29:43.114     0:00:59.793     29 997 kbps     32 197 kbps     00:30:22.020    30 459 kbps     00:30:17.982    30 280 kbps     00:30:13.011    125 114 bytes   275 802 bytes   00:30:11.442
11              0:30:42.907     0:06:12.205     30 001 kbps     31 971 kbps     00:35:43.407    30 484 kbps     00:36:08.366    30 279 kbps     00:36:03.361    125 128 bytes   328 518 bytes   00:35:01.899
12              0:36:55.112     0:00:55.555     29 992 kbps     31 646 kbps     00:37:44.462    30 400 kbps     00:37:40.424    30 174 kbps     00:37:39.991    125 093 bytes   295 071 bytes   00:37:45.429
13              0:37:50.668     0:02:12.699     30 000 kbps     33 367 kbps     00:39:00.371    30 671 kbps     00:38:56.300    30 328 kbps     00:38:51.329    125 126 bytes   303 961 bytes   00:39:26.530
14              0:40:03.367     0:03:02.649     30 000 kbps     32 592 kbps     00:40:10.107    30 578 kbps     00:41:34.625    30 308 kbps     00:41:29.620    125 125 bytes   310 556 bytes   00:42:21.472
15              0:43:06.016     0:03:20.934     29 992 kbps     33 557 kbps     00:44:57.394    30 773 kbps     00:44:56.493    30 363 kbps     00:44:51.488    125 092 bytes   356 947 bytes   00:45:01.198
16              0:46:26.950     0:04:46.119     30 008 kbps     32 530 kbps     00:46:27.117    30 505 kbps     00:50:51.114    30 249 kbps     00:50:51.114    125 159 bytes   360 796 bytes   00:49:46.450
17              0:51:13.069     0:00:35.368     30 000 kbps     32 269 kbps     00:51:21.745    30 346 kbps     00:51:42.866    30 175 kbps     00:51:14.604    125 123 bytes   328 291 bytes   00:51:38.095
18              0:51:48.438     0:03:47.427     30 000 kbps     35 189 kbps     00:54:22.158    30 814 kbps     00:54:18.154    30 482 kbps     00:54:13.149    125 123 bytes   337 399 bytes   00:54:42.512
19              0:55:35.865     0:01:02.195     29 998 kbps     31 932 kbps     00:55:42.639    30 411 kbps     00:56:13.069    30 181 kbps     00:56:13.069    125 116 bytes   289 672 bytes   00:55:38.868
20              0:56:38.061     0:01:14.574     30 002 kbps     31 750 kbps     00:57:03.453    30 377 kbps     00:56:54.310    30 227 kbps     00:57:03.686    125 134 bytes   307 871 bytes   00:57:45.328
21              0:57:52.635     0:07:29.649     30 000 kbps     34 841 kbps     01:04:31.701    30 855 kbps     01:04:27.730    30 460 kbps     01:04:22.692    125 125 bytes   379 226 bytes   00:58:24.400
22              1:05:22.285     0:01:35.428     30 002 kbps     32 080 kbps     01:05:33.162    30 544 kbps     01:05:25.922    30 253 kbps     01:05:33.596    125 131 bytes   302 864 bytes   01:06:26.215
23              1:06:57.713     0:06:56.816     30 000 kbps     34 548 kbps     01:12:27.976    30 909 kbps     01:12:23.972    30 501 kbps     01:12:18.967    125 125 bytes   364 341 bytes   01:12:08.157
24              1:13:54.530     0:02:53.306     29 997 kbps     31 612 kbps     01:16:12.434    30 281 kbps     01:14:25.160    30 169 kbps     01:16:12.434    125 112 bytes   246 958 bytes   01:15:25.787
25              1:16:47.836     0:03:11.724     30 000 kbps     31 655 kbps     01:17:13.061    30 407 kbps     01:18:21.196    30 217 kbps     01:18:16.191    125 126 bytes   266 899 bytes   01:18:27.936
26              1:19:59.561     0:02:42.862     29 998 kbps     32 753 kbps     01:21:57.946    30 534 kbps     01:21:53.975    30 287 kbps     01:21:27.048    125 119 bytes   287 172 bytes   01:21:42.664
27              1:22:42.424     0:03:48.861     30 001 kbps     32 975 kbps     01:22:43.992    30 570 kbps     01:23:13.021    30 257 kbps     01:23:08.016    125 130 bytes   270 457 bytes   01:24:35.904
28              1:26:31.286     0:05:15.548     29 995 kbps     38 488 kbps     01:31:02.156    31 467 kbps     01:31:40.995    30 698 kbps     01:31:35.990    125 104 bytes   348 615 bytes   01:31:45.933
29              1:31:46.834     0:05:55.588     30 007 kbps     32 661 kbps     01:31:46.934    30 536 kbps     01:31:46.868    30 308 kbps     01:34:09.744    125 153 bytes   355 857 bytes   01:36:57.912
30              1:37:42.423     0:02:00.386     29 998 kbps     32 894 kbps     01:39:23.023    30 506 kbps     01:39:18.952    30 334 kbps     01:39:13.881    125 115 bytes   369 806 bytes   01:37:54.635
31              1:39:42.810     0:06:38.498     30 001 kbps     33 143 kbps     01:41:28.482    30 601 kbps     01:42:55.102    30 310 kbps     01:45:02.696    125 130 bytes   407 436 bytes   01:45:42.035
32              1:46:21.308     0:02:29.549     29 997 kbps     33 734 kbps     01:48:07.514    30 651 kbps     01:48:03.477    30 350 kbps     01:47:50.997    125 114 bytes   353 352 bytes   01:48:29.803
33              1:48:50.857     0:02:04.157     30 001 kbps     33 819 kbps     01:50:12.005    30 762 kbps     01:50:07.968    30 402 kbps     01:50:02.862    125 129 bytes   354 749 bytes   01:50:05.665
34              1:50:55.015     0:01:42.402     30 003 kbps     35 197 kbps     01:52:29.776    31 126 kbps     01:52:25.738    30 560 kbps     01:52:20.800    125 139 bytes   326 489 bytes   01:52:36.349
35              1:52:37.417     0:02:02.122     29 996 kbps     32 248 kbps     01:54:01.534    30 478 kbps     01:54:01.534    30 264 kbps     01:54:16.282    125 107 bytes   349 651 bytes   01:54:05.538
36              1:54:39.539     0:02:28.581     30 001 kbps     34 246 kbps     01:55:07.200    30 919 kbps     01:55:03.096    30 446 kbps     01:54:58.191    125 131 bytes   411 547 bytes   01:55:40.133
37              1:57:08.121     0:00:58.925     30 008 kbps     33 294 kbps     01:57:34.313    30 648 kbps     01:57:30.276    30 330 kbps     01:57:25.271    125 159 bytes   388 853 bytes   01:57:35.048
38              1:58:07.046     0:04:34.841     29 999 kbps     32 797 kbps     02:01:10.296    30 566 kbps     02:01:06.158    30 340 kbps     01:58:22.328    125 123 bytes   381 985 bytes   02:02:23.002
39              2:02:41.887     0:05:40.506     29 999 kbps     33 548 kbps     02:03:16.922    30 643 kbps     02:03:59.532    30 391 kbps     02:07:34.213    125 121 bytes   407 599 bytes   02:06:38.257
40              2:08:22.394     0:09:37.476     29 999 kbps     32 833 kbps     02:17:58.536    30 622 kbps     02:17:54.266    30 314 kbps     02:15:11.536    125 122 bytes   420 395 bytes   02:12:43.722
41              2:17:59.871     0:09:23.396     30 001 kbps     33 772 kbps     02:26:31.115    30 782 kbps     02:25:19.110    30 467 kbps     02:26:22.106    125 128 bytes   390 390 bytes   02:22:36.180
42              2:27:23.267     0:01:40.733     29 982 kbps     43 541 kbps     02:28:44.916    33 087 kbps     02:28:40.945    31 657 kbps     02:28:35.940    125 049 bytes   614 512 bytes   02:28:45.616
43              2:29:04.001     0:00:09.042     4 014 kbps      6 164 kbps      02:29:04.402    4 436 kbps      02:29:04.402    0 kbps          00:00:00.000    16 743 bytes    133 442 bytes   02:29:13.010
44              2:29:13.044     0:00:06.005     4 005 kbps      5 679 kbps      02:29:13.577    4 367 kbps      02:29:13.511    0 kbps          00:00:00.000    16 800 bytes    133 434 bytes   02:29:14.011
[br]
STREAM DIAGNOSTICS:
[br]
File            PID             Type            Codec           Language                Seconds                 Bitrate                 Bytes           Packets
----            ---             ----            -----           --------                --------------          --------------          -------------   -----
00007.M2TS      4113 (0x1011)   0x1B            AVC                                     8943,902                30 000                  33 540 149 612  182 440 282
00007.M2TS      4352 (0x1100)   0x80            LPCM            deu (German)            8943,902                2 310                   2 582 162 244   14 305 608
00007.M2TS      4353 (0x1101)   0x86            DTS-HD MA       deu (German)            8943,902                3 490                   3 901 302 636   22 584 252
00007.M2TS      4608 (0x1200)   0x90            PGS             deu (German)            8943,902                10                      11 543 968      66 244
00007.M2TS      4609 (0x1201)   0x90            PGS             eng (English)           8943,902                16                      18 405 904      105 551
00007.M2TS      4610 (0x1202)   0x90            PGS             fra (French)            8943,902                16                      17 533 472      100 822
00007.M2TS      4611 (0x1203)   0x90            PGS             spa (Spanish)           8943,902                17                      19 553 512      111 803
00007.M2TS      4612 (0x1204)   0x90            PGS             zho (Chinese)           8943,902                14                      16 024 732      92 614
00007.M2TS      4613 (0x1205)   0x90            PGS             kor (Korean)            8943,902                14                      15 592 496      90 276
00007.M2TS      4614 (0x1206)   0x90            PGS             jpn (Japanese)          8943,902                12                      13 464 643      78 719
00006.M2TS      4113 (0x1011)   0x1B            AVC                                     8,909                   4 075                   4 537 438       24 809
00001.M2TS      4113 (0x1011)   0x1B            AVC                                     5,906                   4 075                   3 008 292       16 450
<---- END FORUMS PASTE ---->
QUICK SUMMARY:
Disc Title: Вебер - Вольный стрелок (Semperoper Dresden; Christian Thielemann) (2015) (Blu-ray 1080i, AVC, DTS-HD 5.0)
Disc Size: 44 246 652 395 bytes
Protection: AACS
BD-Java: No
Playlist: 00003.MPLS
Size: 42 300 979 200 bytes
Length: 2:29:19.050
Total Bitrate: 37,77 Mbps
Video: MPEG-4 AVC Video / 29956 kbps / 1080i / 29,970 fps / 16:9 / High Profile 4.1
Audio: German / LPCM Audio / 2.0 / 48 kHz / 2304 kbps / 24-bit
Audio: German / DTS-HD Master Audio / 5.0 / 48 kHz / 3484 kbps / 24-bit (DTS Core: 5.0 / 48 kHz / 1509 kbps / 24-bit)
Subtitle: German / 10,308 kbps
Subtitle: English / 16,436 kbps
Subtitle: French / 15,657 kbps
Subtitle: Spanish / 17,460 kbps
Subtitle: Chinese / 14,309 kbps
Subtitle: Korean / 13,923 kbps
Subtitle: Japanese / 12,023 kbps
********************
PLAYLIST: 00007.MPLS
********************
<--- BEGIN FORUMS PASTE --->
Total   Video
Title                                                           Codec   Length  Movie Size      Disc Size       Bitrate Bitrate Main Audio Track                          Secondary Audio Track
-----                                                           ------  ------- --------------  --------------  ------- ------- ------------------                        ---------------------
00007.MPLS                                                      AVC     0:03:23 466 384 896     44 246 652 395  18,36   13,99   LPCM 2.0 1536Kbps (48kHz/16-bit)          LPCM 2.0 1536Kbps (48kHz/16-bit)
DISC INFO:
[br]
Disc Title:     Вебер - Вольный стрелок (Semperoper Dresden; Christian Thielemann) (2015) (Blu-ray 1080i, AVC, DTS-HD 5.0)
Disc Size:      44 246 652 395 bytes
Protection:     AACS
BD-Java:        No
BDInfo:         0.5.8
[br]
PLAYLIST REPORT:
[br]
Name:                   00007.MPLS
Length:                 0:03:23.202 (h:m:s.ms)
Size:                   466 384 896 bytes
Total Bitrate:          18,36 Mbps
[br]
VIDEO:
[br]
Codec                   Bitrate             Description
-----                   -------             -----------
MPEG-4 AVC Video        13987 kbps          1080i / 29,970 fps / 16:9 / High Profile 4.1
[br]
AUDIO:
[br]
Codec                           Language        Bitrate         Description
-----                           --------        -------         -----------
LPCM Audio                      Undetermined    1536 kbps       2.0 / 48 kHz / 1536 kbps / 16-bit
LPCM Audio                      Undetermined    1536 kbps       2.0 / 48 kHz / 1536 kbps / 16-bit
[br]
SUBTITLES:
[br]
Codec                           Language        Bitrate         Description
-----                           --------        -------         -----------
Presentation Graphics           German          0,065 kbps
Presentation Graphics           English         0,065 kbps
Presentation Graphics           French          0,065 kbps
Presentation Graphics           Spanish         0,065 kbps
Presentation Graphics           Chinese         0,065 kbps
Presentation Graphics           Korean          0,065 kbps
Presentation Graphics           Japanese        0,065 kbps
[br]
FILES:
[br]
Name            Time In         Length          Size            Total Bitrate
----            -------         ------          ----            -------------
00015.M2TS      0:00:00.000     0:03:23.202     466 384 896     18 361
[br]
CHAPTERS:
[br]
Number          Time In         Length          Avg Video Rate  Max 1-Sec Rate  Max 1-Sec Time  Max 5-Sec Rate  Max 5-Sec Time  Max 10Sec Rate  Max 10Sec Time  Avg Frame Size  Max Frame Size  Max Frame Time
------          -------         ------          --------------  --------------  --------------  --------------  --------------  --------------  --------------  --------------  --------------  --------------
1               0:00:00.000     0:03:22.001     14 064 kbps     26 265 kbps     00:00:47.580    22 998 kbps     00:00:44.344    21 800 kbps     00:00:41.541    58 650 bytes    510 835 bytes   00:00:48.548
2               0:03:22.001     0:00:01.201     977 kbps        1 156 kbps      00:03:22.001    0 kbps          00:00:00.000    0 kbps          00:00:00.000    4 192 bytes     55 262 bytes    00:03:22.035
[br]
STREAM DIAGNOSTICS:
[br]
File            PID             Type            Codec           Language                Seconds                 Bitrate                 Bytes           Packets
----            ---             ----            -----           --------                --------------          --------------          -------------   -----
00015.M2TS      4113 (0x1011)   0x1B            AVC                                     203,103                 13 994                  355 274 550     1 934 447
00015.M2TS      4352 (0x1100)   0x80            LPCM            und (Undetermined)      203,103                 1 543                   39 177 924      243 846
00015.M2TS      4353 (0x1101)   0x80            LPCM            und (Undetermined)      203,103                 1 543                   39 177 924      243 846
00015.M2TS      4608 (0x1200)   0x90            PGS             deu (German)            203,103                 0                       1 644           16
00015.M2TS      4609 (0x1201)   0x90            PGS             eng (English)           203,103                 0                       1 644           16
00015.M2TS      4610 (0x1202)   0x90            PGS             fra (French)            203,103                 0                       1 644           16
00015.M2TS      4611 (0x1203)   0x90            PGS             spa (Spanish)           203,103                 0                       1 644           16
00015.M2TS      4612 (0x1204)   0x90            PGS             zho (Chinese)           203,103                 0                       1 644           16
00015.M2TS      4613 (0x1205)   0x90            PGS             kor (Korean)            203,103                 0                       1 644           16
00015.M2TS      4614 (0x1206)   0x90            PGS             jpn (Japanese)          203,103                 0                       1 644           16
<---- END FORUMS PASTE ---->
QUICK SUMMARY:
Disc Title: Вебер - Вольный стрелок (Semperoper Dresden; Christian Thielemann) (2015) (Blu-ray 1080i, AVC, DTS-HD 5.0)
Disc Size: 44 246 652 395 bytes
Protection: AACS
BD-Java: No
Playlist: 00007.MPLS
Size: 466 384 896 bytes
Length: 0:03:23.202
Total Bitrate: 18,36 Mbps
Video: MPEG-4 AVC Video / 13987 kbps / 1080i / 29,970 fps / 16:9 / High Profile 4.1
Audio: Undetermined / LPCM Audio / 2.0 / 48 kHz / 1536 kbps / 16-bit
Audio: Undetermined / LPCM Audio / 2.0 / 48 kHz / 1536 kbps / 16-bit
Subtitle: German / 0,065 kbps
Subtitle: English / 0,065 kbps
Subtitle: French / 0,065 kbps
Subtitle: Spanish / 0,065 kbps
Subtitle: Chinese / 0,065 kbps
Subtitle: Korean / 0,065 kbps
Subtitle: Japanese / 0,065 kbps
********************
PLAYLIST: 00005.MPLS
********************
<--- BEGIN FORUMS PASTE --->
Total   Video
Title                                                           Codec   Length  Movie Size      Disc Size       Bitrate Bitrate Main Audio Track                          Secondary Audio Track
-----                                                           ------  ------- --------------  --------------  ------- ------- ------------------                        ---------------------
00005.MPLS                                                      AVC     0:02:11 439 037 952     44 246 652 395  26,72   21,99   LPCM 2.0 1536Kbps (48kHz/16-bit)          LPCM 2.0 1536Kbps (48kHz/16-bit)
DISC INFO:
[br]
Disc Title:     Вебер - Вольный стрелок (Semperoper Dresden; Christian Thielemann) (2015) (Blu-ray 1080i, AVC, DTS-HD 5.0)
Disc Size:      44 246 652 395 bytes
Protection:     AACS
BD-Java:        No
BDInfo:         0.5.8
[br]
PLAYLIST REPORT:
[br]
Name:                   00005.MPLS
Length:                 0:02:11.464 (h:m:s.ms)
Size:                   439 037 952 bytes
Total Bitrate:          26,72 Mbps
[br]
VIDEO:
[br]
Codec                   Bitrate             Description
-----                   -------             -----------
MPEG-4 AVC Video        21994 kbps          1080i / 29,970 fps / 16:9 / High Profile 4.1
[br]
AUDIO:
[br]
Codec                           Language        Bitrate         Description
-----                           --------        -------         -----------
LPCM Audio                      Undetermined    1536 kbps       2.0 / 48 kHz / 1536 kbps / 16-bit
LPCM Audio                      Undetermined    1536 kbps       2.0 / 48 kHz / 1536 kbps / 16-bit
[br]
SUBTITLES:
[br]
Codec                           Language        Bitrate         Description
-----                           --------        -------         -----------
Presentation Graphics           German          0,100 kbps
Presentation Graphics           English         0,100 kbps
Presentation Graphics           French          0,100 kbps
Presentation Graphics           Spanish         0,100 kbps
Presentation Graphics           Chinese         0,100 kbps
Presentation Graphics           Korean          0,100 kbps
Presentation Graphics           Japanese        0,100 kbps
[br]
FILES:
[br]
Name            Time In         Length          Size            Total Bitrate
----            -------         ------          ----            -------------
00013.M2TS      0:00:00.000     0:02:11.464     439 037 952     26 717
[br]
CHAPTERS:
[br]
Number          Time In         Length          Avg Video Rate  Max 1-Sec Rate  Max 1-Sec Time  Max 5-Sec Rate  Max 5-Sec Time  Max 10Sec Rate  Max 10Sec Time  Avg Frame Size  Max Frame Size  Max Frame Time
------          -------         ------          --------------  --------------  --------------  --------------  --------------  --------------  --------------  --------------  --------------  --------------
1               0:00:00.000     0:02:09.996     22 208 kbps     34 291 kbps     00:01:11.371    31 814 kbps     00:01:11.204    28 664 kbps     00:01:20.246    92 601 bytes    361 598 bytes   00:00:53.520
2               0:02:09.996     0:00:01.468     3 109 kbps      4 544 kbps      00:02:10.430    0 kbps          00:00:00.000    0 kbps          00:00:00.000    13 269 bytes    141 783 bytes   00:02:11.431
[br]
STREAM DIAGNOSTICS:
[br]
File            PID             Type            Codec           Language                Seconds                 Bitrate                 Bytes           Packets
----            ---             ----            -----           --------                --------------          --------------          -------------   -----
00013.M2TS      4113 (0x1011)   0x1B            AVC                                     131,331                 22 017                  361 434 975     1 966 599
00013.M2TS      4352 (0x1100)   0x80            LPCM            und (Undetermined)      131,331                 1 544                   25 346 452      157 758
00013.M2TS      4353 (0x1101)   0x80            LPCM            und (Undetermined)      131,331                 1 544                   25 346 452      157 758
00013.M2TS      4608 (0x1200)   0x90            PGS             deu (German)            131,331                 0                       1 644           16
00013.M2TS      4609 (0x1201)   0x90            PGS             eng (English)           131,331                 0                       1 644           16
00013.M2TS      4610 (0x1202)   0x90            PGS             fra (French)            131,331                 0                       1 644           16
00013.M2TS      4611 (0x1203)   0x90            PGS             spa (Spanish)           131,331                 0                       1 644           16
00013.M2TS      4612 (0x1204)   0x90            PGS             zho (Chinese)           131,331                 0                       1 644           16
00013.M2TS      4613 (0x1205)   0x90            PGS             kor (Korean)            131,331                 0                       1 644           16
00013.M2TS      4614 (0x1206)   0x90            PGS             jpn (Japanese)          131,331                 0                       1 644           16
<---- END FORUMS PASTE ---->
QUICK SUMMARY:
Disc Title: Вебер - Вольный стрелок (Semperoper Dresden; Christian Thielemann) (2015) (Blu-ray 1080i, AVC, DTS-HD 5.0)
Disc Size: 44 246 652 395 bytes
Protection: AACS
BD-Java: No
Playlist: 00005.MPLS
Size: 439 037 952 bytes
Length: 0:02:11.464
Total Bitrate: 26,72 Mbps
Video: MPEG-4 AVC Video / 21994 kbps / 1080i / 29,970 fps / 16:9 / High Profile 4.1
Audio: Undetermined / LPCM Audio / 2.0 / 48 kHz / 1536 kbps / 16-bit
Audio: Undetermined / LPCM Audio / 2.0 / 48 kHz / 1536 kbps / 16-bit
Subtitle: German / 0,100 kbps
Subtitle: English / 0,100 kbps
Subtitle: French / 0,100 kbps
Subtitle: Spanish / 0,100 kbps
Subtitle: Chinese / 0,100 kbps
Subtitle: Korean / 0,100 kbps
Subtitle: Japanese / 0,100 kbps
********************
PLAYLIST: 00008.MPLS
********************
<--- BEGIN FORUMS PASTE --->
Total   Video
Title                                                           Codec   Length  Movie Size      Disc Size       Bitrate Bitrate Main Audio Track                          Secondary Audio Track
-----                                                           ------  ------- --------------  --------------  ------- ------- ------------------                        ---------------------
00008.MPLS                                                      AVC     0:01:38 329 895 936     44 246 652 395  26,71   21,99   LPCM 2.0 1536Kbps (48kHz/16-bit)          LPCM 2.0 1536Kbps (48kHz/16-bit)
DISC INFO:
[br]
Disc Title:     Вебер - Вольный стрелок (Semperoper Dresden; Christian Thielemann) (2015) (Blu-ray 1080i, AVC, DTS-HD 5.0)
Disc Size:      44 246 652 395 bytes
Protection:     AACS
BD-Java:        No
BDInfo:         0.5.8
[br]
PLAYLIST REPORT:
[br]
Name:                   00008.MPLS
Length:                 0:01:38.798 (h:m:s.ms)
Size:                   329 895 936 bytes
Total Bitrate:          26,71 Mbps
[br]
VIDEO:
[br]
Codec                   Bitrate             Description
-----                   -------             -----------
MPEG-4 AVC Video        21991 kbps          1080i / 29,970 fps / 16:9 / High Profile 4.1
[br]
AUDIO:
[br]
Codec                           Language        Bitrate         Description
-----                           --------        -------         -----------
LPCM Audio                      Undetermined    1536 kbps       2.0 / 48 kHz / 1536 kbps / 16-bit
LPCM Audio                      Undetermined    1536 kbps       2.0 / 48 kHz / 1536 kbps / 16-bit
[br]
SUBTITLES:
[br]
Codec                           Language        Bitrate         Description
-----                           --------        -------         -----------
Presentation Graphics           German          0,133 kbps
Presentation Graphics           English         0,133 kbps
Presentation Graphics           French          0,133 kbps
Presentation Graphics           Spanish         0,133 kbps
Presentation Graphics           Chinese         0,133 kbps
Presentation Graphics           Korean          0,133 kbps
Presentation Graphics           Japanese        0,133 kbps
[br]
FILES:
[br]
Name            Time In         Length          Size            Total Bitrate
----            -------         ------          ----            -------------
00012.M2TS      0:00:00.000     0:01:38.798     329 895 936     26 713
[br]
CHAPTERS:
[br]
Number          Time In         Length          Avg Video Rate  Max 1-Sec Rate  Max 1-Sec Time  Max 5-Sec Rate  Max 5-Sec Time  Max 10Sec Rate  Max 10Sec Time  Avg Frame Size  Max Frame Size  Max Frame Time
------          -------         ------          --------------  --------------  --------------  --------------  --------------  --------------  --------------  --------------  --------------  --------------
1               0:00:00.000     0:01:37.230     22 279 kbps     36 765 kbps     00:01:27.654    33 503 kbps     00:00:32.899    30 124 kbps     00:00:51.618    92 890 bytes    318 845 bytes   00:01:01.394
2               0:01:37.230     0:00:01.568     4 141 kbps      6 469 kbps      00:01:37.764    0 kbps          00:00:00.000    0 kbps          00:00:00.000    17 649 bytes    141 808 bytes   00:01:37.897
[br]
STREAM DIAGNOSTICS:
[br]
File            PID             Type            Codec           Language                Seconds                 Bitrate                 Bytes           Packets
----            ---             ----            -----           --------                --------------          --------------          -------------   -----
00012.M2TS      4113 (0x1011)   0x1B            AVC                                     98,665                  22 021                  271 585 574     1 477 735
00012.M2TS      4352 (0x1100)   0x80            LPCM            und (Undetermined)      98,665                  1 544                   19 042 856      118 524
00012.M2TS      4353 (0x1101)   0x80            LPCM            und (Undetermined)      98,665                  1 544                   19 042 856      118 524
00012.M2TS      4608 (0x1200)   0x90            PGS             deu (German)            98,665                  0                       1 644           16
00012.M2TS      4609 (0x1201)   0x90            PGS             eng (English)           98,665                  0                       1 644           16
00012.M2TS      4610 (0x1202)   0x90            PGS             fra (French)            98,665                  0                       1 644           16
00012.M2TS      4611 (0x1203)   0x90            PGS             spa (Spanish)           98,665                  0                       1 644           16
00012.M2TS      4612 (0x1204)   0x90            PGS             zho (Chinese)           98,665                  0                       1 644           16
00012.M2TS      4613 (0x1205)   0x90            PGS             kor (Korean)            98,665                  0                       1 644           16
00012.M2TS      4614 (0x1206)   0x90            PGS             jpn (Japanese)          98,665                  0                       1 644           16
<---- END FORUMS PASTE ---->
QUICK SUMMARY:
Disc Title: Вебер - Вольный стрелок (Semperoper Dresden; Christian Thielemann) (2015) (Blu-ray 1080i, AVC, DTS-HD 5.0)
Disc Size: 44 246 652 395 bytes
Protection: AACS
BD-Java: No
Playlist: 00008.MPLS
Size: 329 895 936 bytes
Length: 0:01:38.798
Total Bitrate: 26,71 Mbps
Video: MPEG-4 AVC Video / 21991 kbps / 1080i / 29,970 fps / 16:9 / High Profile 4.1
Audio: Undetermined / LPCM Audio / 2.0 / 48 kHz / 1536 kbps / 16-bit
Audio: Undetermined / LPCM Audio / 2.0 / 48 kHz / 1536 kbps / 16-bit
Subtitle: German / 0,133 kbps
Subtitle: English / 0,133 kbps
Subtitle: French / 0,133 kbps
Subtitle: Spanish / 0,133 kbps
Subtitle: Chinese / 0,133 kbps
Subtitle: Korean / 0,133 kbps
Subtitle: Japanese / 0,133 kbps
********************
PLAYLIST: 00004.MPLS
********************
<--- BEGIN FORUMS PASTE --->
Total   Video
Title                                                           Codec   Length  Movie Size      Disc Size       Bitrate Bitrate Main Audio Track                          Secondary Audio Track
-----                                                           ------  ------- --------------  --------------  ------- ------- ------------------                        ---------------------
00004.MPLS                                                      AVC     0:01:26 287 655 936     44 246 652 395  26,71   21,99   LPCM 2.0 1536Kbps (48kHz/16-bit)          LPCM 2.0 1536Kbps (48kHz/16-bit)
DISC INFO:
[br]
Disc Title:     Вебер - Вольный стрелок (Semperoper Dresden; Christian Thielemann) (2015) (Blu-ray 1080i, AVC, DTS-HD 5.0)
Disc Size:      44 246 652 395 bytes
Protection:     AACS
BD-Java:        No
BDInfo:         0.5.8
[br]
PLAYLIST REPORT:
[br]
Name:                   00004.MPLS
Length:                 0:01:26.152 (h:m:s.ms)
Size:                   287 655 936 bytes
Total Bitrate:          26,71 Mbps
[br]
VIDEO:
[br]
Codec                   Bitrate             Description
-----                   -------             -----------
MPEG-4 AVC Video        21988 kbps          1080i / 29,970 fps / 16:9 / High Profile 4.1
[br]
AUDIO:
[br]
Codec                           Language        Bitrate         Description
-----                           --------        -------         -----------
LPCM Audio                      Undetermined    1536 kbps       2.0 / 48 kHz / 1536 kbps / 16-bit
LPCM Audio                      Undetermined    1536 kbps       2.0 / 48 kHz / 1536 kbps / 16-bit
[br]
SUBTITLES:
[br]
Codec                           Language        Bitrate         Description
-----                           --------        -------         -----------
Presentation Graphics           German          0,153 kbps
Presentation Graphics           English         0,153 kbps
Presentation Graphics           French          0,153 kbps
Presentation Graphics           Spanish         0,153 kbps
Presentation Graphics           Chinese         0,153 kbps
Presentation Graphics           Korean          0,153 kbps
Presentation Graphics           Japanese        0,153 kbps
[br]
FILES:
[br]
Name            Time In         Length          Size            Total Bitrate
----            -------         ------          ----            -------------
00011.M2TS      0:00:00.000     0:01:26.152     287 655 936     26 711
[br]
CHAPTERS:
[br]
Number          Time In         Length          Avg Video Rate  Max 1-Sec Rate  Max 1-Sec Time  Max 5-Sec Rate  Max 5-Sec Time  Max 10Sec Rate  Max 10Sec Time  Avg Frame Size  Max Frame Size  Max Frame Time
------          -------         ------          --------------  --------------  --------------  --------------  --------------  --------------  --------------  --------------  --------------  --------------
1               0:00:00.000     0:01:24.150     22 438 kbps     28 063 kbps     00:00:05.672    27 363 kbps     00:00:05.672    27 140 kbps     00:00:05.672    93 550 bytes    272 415 bytes   00:00:20.019
2               0:01:24.150     0:00:02.002     3 078 kbps      4 557 kbps      00:01:24.851    0 kbps          00:00:00.000    0 kbps          00:00:00.000    13 056 bytes    141 808 bytes   00:01:25.018
[br]
STREAM DIAGNOSTICS:
[br]
File            PID             Type            Codec           Language                Seconds                 Bitrate                 Bytes           Packets
----            ---             ----            -----           --------                --------------          --------------          -------------   -----
00011.M2TS      4113 (0x1011)   0x1B            AVC                                     86,019                  22 023                  236 796 064     1 288 417
00011.M2TS      4352 (0x1100)   0x80            LPCM            und (Undetermined)      86,019                  1 545                   16 610 684      103 386
00011.M2TS      4353 (0x1101)   0x80            LPCM            und (Undetermined)      86,019                  1 545                   16 610 684      103 386
00011.M2TS      4608 (0x1200)   0x90            PGS             deu (German)            86,019                  0                       1 644           16
00011.M2TS      4609 (0x1201)   0x90            PGS             eng (English)           86,019                  0                       1 644           16
00011.M2TS      4610 (0x1202)   0x90            PGS             fra (French)            86,019                  0                       1 644           16
00011.M2TS      4611 (0x1203)   0x90            PGS             spa (Spanish)           86,019                  0                       1 644           16
00011.M2TS      4612 (0x1204)   0x90            PGS             zho (Chinese)           86,019                  0                       1 644           16
00011.M2TS      4613 (0x1205)   0x90            PGS             kor (Korean)            86,019                  0                       1 644           16
00011.M2TS      4614 (0x1206)   0x90            PGS             jpn (Japanese)          86,019                  0                       1 644           16
<---- END FORUMS PASTE ---->
QUICK SUMMARY:
Disc Title: Вебер - Вольный стрелок (Semperoper Dresden; Christian Thielemann) (2015) (Blu-ray 1080i, AVC, DTS-HD 5.0)
Disc Size: 44 246 652 395 bytes
Protection: AACS
BD-Java: No
Playlist: 00004.MPLS
Size: 287 655 936 bytes
Length: 0:01:26.152
Total Bitrate: 26,71 Mbps
Video: MPEG-4 AVC Video / 21988 kbps / 1080i / 29,970 fps / 16:9 / High Profile 4.1
Audio: Undetermined / LPCM Audio / 2.0 / 48 kHz / 1536 kbps / 16-bit
Audio: Undetermined / LPCM Audio / 2.0 / 48 kHz / 1536 kbps / 16-bit
Subtitle: German / 0,153 kbps
Subtitle: English / 0,153 kbps
Subtitle: French / 0,153 kbps
Subtitle: Spanish / 0,153 kbps
Subtitle: Chinese / 0,153 kbps
Subtitle: Korean / 0,153 kbps
Subtitle: Japanese / 0,153 kbps
********************
PLAYLIST: 00006.MPLS
********************
<--- BEGIN FORUMS PASTE --->
Total   Video
Title                                                           Codec   Length  Movie Size      Disc Size       Bitrate Bitrate Main Audio Track                          Secondary Audio Track
-----                                                           ------  ------- --------------  --------------  ------- ------- ------------------                        ---------------------
00006.MPLS                                                      AVC     0:01:15 250 552 320     44 246 652 395  26,71   21,99   LPCM 2.0 1536Kbps (48kHz/16-bit)          LPCM 2.0 1536Kbps (48kHz/16-bit)
DISC INFO:
[br]
Disc Title:     Вебер - Вольный стрелок (Semperoper Dresden; Christian Thielemann) (2015) (Blu-ray 1080i, AVC, DTS-HD 5.0)
Disc Size:      44 246 652 395 bytes
Protection:     AACS
BD-Java:        No
BDInfo:         0.5.8
[br]
PLAYLIST REPORT:
[br]
Name:                   00006.MPLS
Length:                 0:01:15.041 (h:m:s.ms)
Size:                   250 552 320 bytes
Total Bitrate:          26,71 Mbps
[br]
VIDEO:
[br]
Codec                   Bitrate             Description
-----                   -------             -----------
MPEG-4 AVC Video        21988 kbps          1080i / 29,970 fps / 16:9 / High Profile 4.1
[br]
AUDIO:
[br]
Codec                           Language        Bitrate         Description
-----                           --------        -------         -----------
LPCM Audio                      Undetermined    1536 kbps       2.0 / 48 kHz / 1536 kbps / 16-bit
LPCM Audio                      Undetermined    1536 kbps       2.0 / 48 kHz / 1536 kbps / 16-bit
[br]
SUBTITLES:
[br]
Codec                           Language        Bitrate         Description
-----                           --------        -------         -----------
Presentation Graphics           German          0,175 kbps
Presentation Graphics           English         0,175 kbps
Presentation Graphics           French          0,175 kbps
Presentation Graphics           Spanish         0,175 kbps
Presentation Graphics           Chinese         0,175 kbps
Presentation Graphics           Korean          0,175 kbps
Presentation Graphics           Japanese        0,175 kbps
[br]
FILES:
[br]
Name            Time In         Length          Size            Total Bitrate
----            -------         ------          ----            -------------
00014.M2TS      0:00:00.000     0:01:15.041     250 552 320     26 711
[br]
CHAPTERS:
[br]
Number          Time In         Length          Avg Video Rate  Max 1-Sec Rate  Max 1-Sec Time  Max 5-Sec Rate  Max 5-Sec Time  Max 10Sec Rate  Max 10Sec Time  Avg Frame Size  Max Frame Size  Max Frame Time
------          -------         ------          --------------  --------------  --------------  --------------  --------------  --------------  --------------  --------------  --------------  --------------
1               0:00:00.000     0:01:13.106     22 488 kbps     35 358 kbps     00:01:04.631    34 094 kbps     00:01:00.627    33 892 kbps     00:00:55.722    93 752 bytes    326 486 bytes   00:00:52.018
2               0:01:13.106     0:00:01.935     3 082 kbps      2 985 kbps      00:01:14.007    0 kbps          00:00:00.000    0 kbps          00:00:00.000    13 078 bytes    141 808 bytes   00:01:13.973
[br]
STREAM DIAGNOSTICS:
[br]
File            PID             Type            Codec           Language                Seconds                 Bitrate                 Bytes           Packets
----            ---             ----            -----           --------                --------------          --------------          -------------   -----
00014.M2TS      4113 (0x1011)   0x1B            AVC                                     74,908                  22 027                  206 249 524     1 122 205
00014.M2TS      4352 (0x1100)   0x80            LPCM            und (Undetermined)      74,908                  1 545                   14 468 676      90 054
00014.M2TS      4353 (0x1101)   0x80            LPCM            und (Undetermined)      74,908                  1 545                   14 468 676      90 054
00014.M2TS      4608 (0x1200)   0x90            PGS             deu (German)            74,908                  0                       1 644           16
00014.M2TS      4609 (0x1201)   0x90            PGS             eng (English)           74,908                  0                       1 644           16
00014.M2TS      4610 (0x1202)   0x90            PGS             fra (French)            74,908                  0                       1 644           16
00014.M2TS      4611 (0x1203)   0x90            PGS             spa (Spanish)           74,908                  0                       1 644           16
00014.M2TS      4612 (0x1204)   0x90            PGS             zho (Chinese)           74,908                  0                       1 644           16
00014.M2TS      4613 (0x1205)   0x90            PGS             kor (Korean)            74,908                  0                       1 644           16
00014.M2TS      4614 (0x1206)   0x90            PGS             jpn (Japanese)          74,908                  0                       1 644           16
<---- END FORUMS PASTE ---->
QUICK SUMMARY:
Disc Title: Вебер - Вольный стрелок (Semperoper Dresden; Christian Thielemann) (2015) (Blu-ray 1080i, AVC, DTS-HD 5.0)
Disc Size: 44 246 652 395 bytes
Protection: AACS
BD-Java: No
Playlist: 00006.MPLS
Size: 250 552 320 bytes
Length: 0:01:15.041
Total Bitrate: 26,71 Mbps
Video: MPEG-4 AVC Video / 21988 kbps / 1080i / 29,970 fps / 16:9 / High Profile 4.1
Audio: Undetermined / LPCM Audio / 2.0 / 48 kHz / 1536 kbps / 16-bit
Audio: Undetermined / LPCM Audio / 2.0 / 48 kHz / 1536 kbps / 16-bit
Subtitle: German / 0,175 kbps
Subtitle: English / 0,175 kbps
Subtitle: French / 0,175 kbps
Subtitle: Spanish / 0,175 kbps
Subtitle: Chinese / 0,175 kbps
Subtitle: Korean / 0,175 kbps
Subtitle: Japanese / 0,175 kbps
********************
PLAYLIST: 00000.MPLS
********************
<--- BEGIN FORUMS PASTE --->
Total   Video
Title                                                           Codec   Length  Movie Size      Disc Size       Bitrate Bitrate Main Audio Track                          Secondary Audio Track
-----                                                           ------  ------- --------------  --------------  ------- ------- ------------------                        ---------------------
00000.MPLS                                                      AVC     0:00:20 20 441 088      44 246 652 395  8,00    7,58
DISC INFO:
[br]
Disc Title:     Вебер - Вольный стрелок (Semperoper Dresden; Christian Thielemann) (2015) (Blu-ray 1080i, AVC, DTS-HD 5.0)
Disc Size:      44 246 652 395 bytes
Protection:     AACS
BD-Java:        No
BDInfo:         0.5.8
[br]
PLAYLIST REPORT:
[br]
Name:                   00000.MPLS
Length:                 0:00:20.453 (h:m:s.ms)
Size:                   20 441 088 bytes
Total Bitrate:          8,00 Mbps
[br]
VIDEO:
[br]
Codec                   Bitrate             Description
-----                   -------             -----------
MPEG-4 AVC Video        7585 kbps           1080i / 29,970 fps / 16:9 / High Profile 4.1
[br]
FILES:
[br]
Name            Time In         Length          Size            Total Bitrate
----            -------         ------          ----            -------------
00000.M2TS      0:00:00.000     0:00:08.408     13 111 296      12 474
00002.M2TS      0:00:08.408     0:00:06.006     3 201 024       4 264
00008.M2TS      0:00:14.414     0:00:06.039     4 128 768       5 469
[br]
CHAPTERS:
[br]
Number          Time In         Length          Avg Video Rate  Max 1-Sec Rate  Max 1-Sec Time  Max 5-Sec Rate  Max 5-Sec Time  Max 10Sec Rate  Max 10Sec Time  Avg Frame Size  Max Frame Size  Max Frame Time
------          -------         ------          --------------  --------------  --------------  --------------  --------------  --------------  --------------  --------------  --------------  --------------
1               0:00:00.000     0:00:20.453     7 585 kbps      20 588 kbps     00:00:00.400    12 485 kbps     00:00:00.400    10 778 kbps     00:00:00.400    31 635 bytes    329 383 bytes   00:00:04.003
[br]
STREAM DIAGNOSTICS:
[br]
File            PID             Type            Codec           Language                Seconds                 Bitrate                 Bytes           Packets
----            ---             ----            -----           --------                --------------          --------------          -------------   -----
00000.M2TS      4113 (0x1011)   0x1B            AVC                                     8,275                   12 067                  12 481 688      67 975
00002.M2TS      4113 (0x1011)   0x1B            AVC                                     5,906                   4 075                   3 008 292       16 450
00008.M2TS      4113 (0x1011)   0x1B            AVC                                     5,906                   5 286                   3 902 053       21 294
<---- END FORUMS PASTE ---->
QUICK SUMMARY:
Disc Title: Вебер - Вольный стрелок (Semperoper Dresden; Christian Thielemann) (2015) (Blu-ray 1080i, AVC, DTS-HD 5.0)
Disc Size: 44 246 652 395 bytes
Protection: AACS
BD-Java: No
Playlist: 00000.MPLS
Size: 20 441 088 bytes
Length: 0:00:20.453
Total Bitrate: 8,00 Mbps
Video: MPEG-4 AVC Video / 7585 kbps / 1080i / 29,970 fps / 16:9 / High Profile 4.1
Семпл

Скриншоты


Скриншоты доп. материалов





Показать сообщения:    

Текущее время: 06-Дек 13:12

Часовой пояс: UTC + 3


Вы не можете начинать темы
Вы не можете отвечать на сообщения
Вы не можете редактировать свои сообщения
Вы не можете удалять свои сообщения
Вы не можете голосовать в опросах
Вы не можете прикреплять файлы к сообщениям
Вы не можете скачивать файлы