Мой папа - Юрий Цветков (Сергей Катьер) [Беларусь, Белоруссия, 2014, Документальный, DVB-AVC]


Статистика раздачи [Обновить пиров]
Размер:  961 MB   |    Зарегистрирован:  8 месяцев 13 дней   |    Скачан:  0 раз

Полного источника не было: Никогда

 
   
 
 
 

[Цитировать]

Мой папа - Юрий Цветков
Год выпуска: 2014
Страна: Республика Беларусь
Студия: Белтелерадиокомпания
Жанр: Документальный
Продолжительность: 00:53:47
Перевод: Не требуется
Режиссер: Сергей Катьер
Описание: "Мой папа — Юрий Цветков". Документальный фильм о режиссёре, операторе, сценаристе, заслуженном деятеле искусств Беларуси Юрии Цветкове.
Картина расскажет о человеке, который во многом определил лицо белорусского кинематографа.
Для режиссера Сергея Катьера Цветков — фигура не абстрактная, а достаточно изученная:
— Я знал Юрия Николаевича более 30 лет — и как режиссера, и как директора Белвидеоцентра и киностудии, как замминистра культуры, как председателя Союза кинематографистов... Эта лента, с одной стороны, творческий портрет, а с другой — дневник дочери Юрия Николаевича, которая вспоминает отца. Довольно распространенный жанр, но в последнее время нечасто применяемый. В фильм вошли и воспоминания семьи, друзей, коллег, и архивные съемки (а я в годы знакомства с Цветковым неоднократно его снимал). Мне было интересно использовать личные воспоминания дочери, жены Юрия Цветкова и совместить их с традиционным фильмом–портретом.
Юрий Цветков отдал кино 40 лет — как оператор, когда работал со Львом Голубом, затем как режиссер–постановщик. Он первым начал снимать в жанре музыкальной комедии, а в тяжелые для кинематографа перестроечные годы сумел сохранить киностудию «Беларусьфильм». Многие прекрасные киноленты (например, «В августе сорок четвертого...») увидели свет благодаря его участию и заботе.
Доп. информация:
Авторы сценария: Ольга Цветкова, Сергей Катьер
Операторы: Дмитрий Гурук, Павел Науменко, Сергей Щипцов
Запись потока *.ts с наземного цифрового телеканала "Беларусь 3", ремукс в *.mkv программой VideoReDo.
Качество видео: DVB-AVC
Формат видео: MKV
Видео: AVC (H264), 720x576 (4:3), 25 fps, 2 192 Kbps
Аудио: MP2, 256 kbps, 2 channels, 48 kHz
Сэмпл: http://multi-up.com/1089167

MediaInfo

General
Unique ID : 335588315259783248957680585045874895171 (0xFC77F56284D212937146CA599DA4E943)
Complete name : D:\Новая земля 2\001 Документальный фильмы\Личности\Мой папа - Юрий Цветков (2014)\Мой папа - Юрий Цветков (2014).mkv
Format : Matroska
Format version : Version 2
File size : 961 MiB
Duration : 53mn 47s
Overall bit rate : 2 498 Kbps
Writing application : Lavf52.64.2
Writing library : Lavf52.64.2
Video
ID : 1
Format : AVC
Format/Info : Advanced Video Codec
Format profile : Main@L3.0
Format settings, CABAC : Yes
Format settings, ReFrames : 4 frames
Format settings, GOP : M=4, N=24
Codec ID : V_MPEG4/ISO/AVC
Duration : 53mn 47s
Bit rate : 2 192 Kbps
Width : 720 pixels
Height : 576 pixels
Display aspect ratio : 4:3
Original display aspect ratio : 4:3
Frame rate mode : Constant
Frame rate : 25.000 fps
Standard : PAL
Color space : YUV
Chroma subsampling : 4:2:0
Bit depth : 8 bits
Scan type : MBAFF
Scan order : Top Field First
Bits/(Pixel*Frame) : 0.211
Stream size : 843 MiB (88%)
Default : Yes
Forced : No
Color primaries : BT.601 PAL
Transfer characteristics : BT.470 System B, BT.470 System G
Matrix coefficients : BT.601
Color range : Limited
Audio
ID : 2
Format : MPEG Audio
Format version : Version 1
Format profile : Layer 2
Codec ID : A_MPEG/L2
Codec ID/Hint : MP2
Duration : 53mn 47s
Bit rate mode : Constant
Bit rate : 256 Kbps
Channel(s) : 2 channels
Sampling rate : 48.0 KHz
Compression mode : Lossy
Stream size : 98.5 MiB (10%)
Language : English
Default : Yes
Forced : No
[teatrix.ru].t22994.torrent 
Торрент: Зарегистрирован [ 2016-03-21 00:35 ] · B4CB2C1F6BA4C6970856B9CF8F5D7630D67FDCD3

Скачать .torrent

Скачать

19 KB

Статус: проверено
Скачан: 0 раз
Размер: 961 MB
terms.php



Показать сообщения:    

Текущее время: 03-Дек 14:38

Часовой пояс: UTC + 3


Вы не можете начинать темы
Вы не можете отвечать на сообщения
Вы не можете редактировать свои сообщения
Вы не можете удалять свои сообщения
Вы не можете голосовать в опросах
Вы не можете прикреплять файлы к сообщениям
Вы можете скачивать файлы