Джон Адамс - Доктор Атомик (Музыкальный театр Амстердама; Питер Селлерс, Лоуренс Ренес) / John Adams - Doctor Atomic (Het Muziektheater, Amsterdam; Peter Sellars, Lawrence Renes; Finley, Rivera, Owens, Paul Fink) [2007, Opera, Blu-ray 1080i]


 

[Цитировать]

Джон Адамс - Доктор Атомик / John Adams - Doctor Atomic
Год выпуска: 2007
Лейбл: Opus Arte
Страна-производитель: США
Жанр: Opera
Продолжительность: 02:50:25
Язык: Английский
Режиссер: Peter Sellars (Питер Селлерс)
Дирижер: Lawrence Renes (Лоуренс Ренес)
Исполнители:
Gerald Finley (Джералд Финли) - J. Robert Oppenheimer,
Jessica Rivera (Джессика Ривера) - Kitty Oppenheimer,
Eric Owens (Эрик Оуэнс) - General Leslie,
Richard Paul Fink (Ричард Пол Финк) - Edward Teller,
James Maddalena (Джеймс Маддалена) - Jack Hubbard,
Thomas Glenn (Томас Гленн) - Robert Wilson,
Jay Hunter Morris (Джей Хантер Моррис) - Captain James Nola,
Ellen Rabiner (Эллен Рабинер) - Pasqualita
Co-production of San Francisco Opera, Lyric Opera of Chicago and De Nederlandse Opera, Netherlands Philharmonic Orchestra, Chorus of De Nederlandse Opera
Описание: Чувство тревоги, преодолевающее человеческие границы, все же не останавливает физика Роберта Оппенгеймера (Julius Robert Oppenheimer) начать эксперимент, который создал угрозу всему человечеству, и чьи научные разработки продолжаются и сегодня. В опере Джона Адамса поднят моральной вопрос значения атомной бомбы, столь же и влияние происходящего на судьбы главных героев. Опера «Доктор Атом» является пятой работой, за двадцать лет сотрудничества, между композитором и американскими режиссером Питером Селларсом.
В фокусе оперы последние несколько часов перед испытаниями первой атомной бомбы. Адамс и Селларс, вопреки ожиданиям, изображают "отца бомбы" Роберта Оппенгеймера не отважным героем, "рыцарем без страха и упрёка", а человеком, с детским восторгом рассуждающим о том, сколько тысяч человек сможет уничтожить его бомба, чья одержимость своей работой, борется с первобытным стихийным ужасом перед самым мощным оружием в истории человечества, созданным его собственными руками.

Оригинальное описание

Doctor Atomic concerns itself with the work of J. Robert Oppenheimer and his team of scientists at the test site of the first atomic bomb outside Los Alamos, New Mexico during the lead-up to the first detonation. As Zero Hour relentlessly approaches and conditions become less and less favourable, individual tensions build feverishly, and Oppenheimer and his staff struggle with the moral implications of their work on the Gadget, and the strong possibility of global annihilation.
Recorded live at Het Muziektheater, Amsterdam, 7, 25 & 29 June 2007.
Джон Кулидж Адамс (1947)
Бонус:
Illustrated Synopsis (00:09:37)
Cast Gallery (00:01:17)
Mini Documentary About The Opera (00:04:33)
Interview With Peter Sellars, Librettist & Stage Director (00:27:27, 00:06:33, 00:04:07)
Качество видео: Blu-ray
Формат/Контейнер: BDMV
Видео кодек: MPEG4
Аудио кодек: Dolby TrueHD Audio
Видео поток: 1920x1080i, MPEG-4 Video, 29.970 fps, 16:9, 23455 kbps
Аудио поток 1: Dolby TrueHD Audio, 2 ch, 48 kHz, 24-bit, 1470 kbps, (AC3 Embedded: 2.0 / 48 kHz / 224 kbps)
Аудио поток 2: Dolby TrueHD Audio, 5.1 ch, 48 kHz, 24-bit, 4059 kbps (AC3 Embedded: 5.1 / 48 kHz / 640 kbps)
Субтитры: Английские, немецкие, французские, испанские, итальянские, датские

BD-Info

Disc Title: Адамс Джон - Доктор Атомик (Het Muziektheater, Amsterdam) (2007) (Blu-ray 1080i, AVC, TrueHD 5.1)
Disc Size: 48 845 807 912 bytes
Protection: AACS
BD-Java: No
BDInfo: 0.5.8
Notes:
BDINFO HOME:
Cinema Squid
http://www.cinemasquid.com/blu-ray/tools/bdinfo
INCLUDES FORUMS REPORT FOR:
AVS Forum Blu-ray Audio and Video Specifications Thread
http://www.avsforum.com/avs-vb/showthread.php?t=1155731
********************
PLAYLIST: 00000.MPLS
********************
<--- BEGIN FORUMS PASTE --->
Total   Video
Title                                                           Codec   Length  Movie Size      Disc Size       Bitrate Bitrate Main Audio Track                          Secondary Audio Track
-----                                                           ------  ------- --------------  --------------  ------- ------- ------------------                        ---------------------
00000.MPLS                                                      AVC     2:50:25 42 539 065 344  48 845 807 912  33,28   23,46   Dolby TrueHD 2.0 1470Kbps (48kHz/24-bit)  Dolby TrueHD 5.1 4059Kbps (48kHz/24-bit)
DISC INFO:
[br]
Disc Title:     Адамс Джон - Доктор Атомик (Het Muziektheater, Amsterdam) (2007) (Blu-ray 1080i, AVC, TrueHD 5.1)
Disc Size:      48 845 807 912 bytes
Protection:     AACS
BD-Java:        No
BDInfo:         0.5.8
[br]
PLAYLIST REPORT:
[br]
Name:                   00000.MPLS
Length:                 2:50:25.248 (h:m:s.ms)
Size:                   42 539 065 344 bytes
Total Bitrate:          33,28 Mbps
[br]
VIDEO:
[br]
Codec                   Bitrate             Description
-----                   -------             -----------
MPEG-4 AVC Video        23455 kbps          1080i / 29,970 fps / 16:9 / High Profile 4.1
[br]
AUDIO:
[br]
Codec                           Language        Bitrate         Description
-----                           --------        -------         -----------
Dolby TrueHD Audio              English         1470 kbps       2.0 / 48 kHz / 1470 kbps / 24-bit (AC3 Embedded: 2.0 / 48 kHz / 224 kbps)
Dolby TrueHD Audio              English         4059 kbps       5.1 / 48 kHz / 4059 kbps / 24-bit (AC3 Embedded: 5.1 / 48 kHz / 640 kbps)
[br]
SUBTITLES:
[br]
Codec                           Language        Bitrate         Description
-----                           --------        -------         -----------
Presentation Graphics           English         18,917 kbps
Presentation Graphics           French          20,711 kbps
Presentation Graphics           German          21,453 kbps
Presentation Graphics           Spanish         20,223 kbps
Presentation Graphics           Italian         19,912 kbps
Presentation Graphics           Dutch           20,582 kbps
[br]
FILES:
[br]
Name            Time In         Length          Size            Total Bitrate
----            -------         ------          ----            -------------
00005.M2TS      0:00:00.000     2:50:25.248     42 539 065 344  33 282
[br]
CHAPTERS:
[br]
Number          Time In         Length          Avg Video Rate  Max 1-Sec Rate  Max 1-Sec Time  Max 5-Sec Rate  Max 5-Sec Time  Max 10Sec Rate  Max 10Sec Time  Avg Frame Size  Max Frame Size  Max Frame Time
------          -------         ------          --------------  --------------  --------------  --------------  --------------  --------------  --------------  --------------  --------------  --------------
1               0:00:00.000     0:02:09.129     24 371 kbps     37 512 kbps     00:02:05.792    33 980 kbps     00:01:30.490    31 655 kbps     00:00:45.445    101 621 bytes   312 739 bytes   00:00:54.954
2               0:02:09.129     0:02:54.274     22 986 kbps     37 670 kbps     00:02:23.276    33 514 kbps     00:02:20.640    32 663 kbps     00:02:15.602    95 873 bytes    382 445 bytes   00:05:01.534
3               0:05:03.403     0:27:28.546     23 519 kbps     43 360 kbps     00:08:30.243    37 630 kbps     00:05:03.469    36 573 kbps     00:05:03.736    98 095 bytes    672 911 bytes   00:05:05.405
4               0:32:31.950     0:16:15.474     23 424 kbps     36 314 kbps     00:48:02.312    33 400 kbps     00:47:57.774    32 986 kbps     00:47:57.808    97 696 bytes    375 182 bytes   00:38:36.647
5               0:48:47.424     0:31:56.881     22 048 kbps     38 807 kbps     01:10:55.351    35 321 kbps     01:12:55.504    34 800 kbps     01:12:50.499    91 960 bytes    505 323 bytes   01:10:55.684
6               1:20:44.306     0:12:44.764     23 003 kbps     37 145 kbps     01:32:08.956    35 189 kbps     01:32:06.287    34 771 kbps     01:32:05.219    95 942 bytes    537 951 bytes   01:32:09.457
7               1:33:29.070     0:05:29.395     22 755 kbps     32 252 kbps     01:34:11.479    31 562 kbps     01:34:07.475    31 441 kbps     01:33:51.158    94 906 bytes    419 613 bytes   01:38:35.976
8               1:38:58.465     0:23:07.319     24 483 kbps     37 914 kbps     01:46:55.208    36 113 kbps     01:46:51.204    35 009 kbps     01:46:50.937    102 117 bytes   477 057 bytes   01:54:32.999
9               2:02:05.785     0:17:19.671     24 978 kbps     40 250 kbps     02:09:21.653    34 227 kbps     02:13:00.906    32 578 kbps     02:11:18.403    104 181 bytes   463 013 bytes   02:11:31.917
10              2:19:25.457     0:04:54.661     24 501 kbps     33 388 kbps     02:23:01.739    30 787 kbps     02:23:56.694    30 308 kbps     02:22:52.597    102 191 bytes   516 919 bytes   02:22:56.768
11              2:24:20.118     0:23:58.937     25 138 kbps     39 353 kbps     02:24:37.969    36 712 kbps     02:48:09.245    35 931 kbps     02:48:06.876    104 847 bytes   710 946 bytes   02:48:16.686
12              2:48:19.055     0:02:06.192     3 026 kbps      4 739 kbps      02:50:19.475    3 940 kbps      02:49:46.643    3 777 kbps      02:49:45.642    12 626 bytes    394 109 bytes   02:50:20.176
[br]
STREAM DIAGNOSTICS:
[br]
File            PID             Type            Codec           Language                Seconds                 Bitrate                 Bytes           Packets
----            ---             ----            -----           --------                --------------          --------------          -------------   -----
00005.M2TS      4113 (0x1011)   0x1B            AVC                                     10225,182               23 455                  29 979 469 426  163 110 967
00005.M2TS      4352 (0x1100)   0x83            TrueHD          eng (English)           10225,182               1 694                   2 165 233 050   15 775 645
00005.M2TS      4353 (0x1101)   0x83            TrueHD          eng (English)           10225,182               4 699                   6 005 934 542   41 434 473
00005.M2TS      4608 (0x1200)   0x90            PGS             eng (English)           10225,182               19                      24 178 315      139 385
00005.M2TS      4609 (0x1201)   0x90            PGS             fra (French)            10225,182               21                      26 471 576      151 864
00005.M2TS      4610 (0x1202)   0x90            PGS             deu (German)            10225,182               21                      27 420 721      157 021
00005.M2TS      4611 (0x1203)   0x90            PGS             spa (Spanish)           10225,182               20                      25 847 760      148 455
00005.M2TS      4612 (0x1204)   0x90            PGS             ita (Italian)           10225,182               20                      25 451 147      146 292
00005.M2TS      4613 (0x1205)   0x90            PGS             nld (Dutch)             10225,182               21                      26 307 038      150 952
<---- END FORUMS PASTE ---->
QUICK SUMMARY:
Disc Title: Адамс Джон - Доктор Атомик (Het Muziektheater, Amsterdam) (2007) (Blu-ray 1080i, AVC, TrueHD 5.1)
Disc Size: 48 845 807 912 bytes
Protection: AACS
BD-Java: No
Playlist: 00000.MPLS
Size: 42 539 065 344 bytes
Length: 2:50:25.248
Total Bitrate: 33,28 Mbps
Video: MPEG-4 AVC Video / 23455 kbps / 1080i / 29,970 fps / 16:9 / High Profile 4.1
Audio: English / Dolby TrueHD Audio / 2.0 / 48 kHz / 1470 kbps / 24-bit (AC3 Embedded: 2.0 / 48 kHz / 224 kbps)
Audio: English / Dolby TrueHD Audio / 5.1 / 48 kHz / 4059 kbps / 24-bit (AC3 Embedded: 5.1 / 48 kHz / 640 kbps)
Subtitle: English / 18,917 kbps
Subtitle: French / 20,711 kbps
Subtitle: German / 21,453 kbps
Subtitle: Spanish / 20,223 kbps
Subtitle: Italian / 19,912 kbps
Subtitle: Dutch / 20,582 kbps
********************
PLAYLIST: 00006.MPLS
********************
<--- BEGIN FORUMS PASTE --->
Total   Video
Title                                                           Codec   Length  Movie Size      Disc Size       Bitrate Bitrate Main Audio Track                          Secondary Audio Track
-----                                                           ------  ------- --------------  --------------  ------- ------- ------------------                        ---------------------
00006.MPLS                                                      AVC     0:27:27 2 619 740 160   48 845 807 912  12,72   10,00   LPCM 2.0 1536Kbps (48kHz/16-bit)
DISC INFO:
[br]
Disc Title:     Адамс Джон - Доктор Атомик (Het Muziektheater, Amsterdam) (2007) (Blu-ray 1080i, AVC, TrueHD 5.1)
Disc Size:      48 845 807 912 bytes
Protection:     AACS
BD-Java:        No
BDInfo:         0.5.8
[br]
PLAYLIST REPORT:
[br]
Name:                   00006.MPLS
Length:                 0:27:27.178 (h:m:s.ms)
Size:                   2 619 740 160 bytes
Total Bitrate:          12,72 Mbps
[br]
VIDEO:
[br]
Codec                   Bitrate             Description
-----                   -------             -----------
MPEG-4 AVC Video        10001 kbps          1080i / 29,970 fps / 16:9 / High Profile 4.1
[br]
AUDIO:
[br]
Codec                           Language        Bitrate         Description
-----                           --------        -------         -----------
LPCM Audio                      English         1536 kbps       2.0 / 48 kHz / 1536 kbps / 16-bit
[br]
SUBTITLES:
[br]
Codec                           Language        Bitrate         Description
-----                           --------        -------         -----------
Presentation Graphics           English         0,001 kbps
Presentation Graphics           French          67,239 kbps
Presentation Graphics           German          76,037 kbps
Presentation Graphics           Spanish         68,604 kbps
Presentation Graphics           Italian         64,170 kbps
Presentation Graphics           Dutch           63,973 kbps
[br]
FILES:
[br]
Name            Time In         Length          Size            Total Bitrate
----            -------         ------          ----            -------------
00008.M2TS      0:00:00.000     0:27:27.178     2 619 740 160   12 724
[br]
CHAPTERS:
[br]
Number          Time In         Length          Avg Video Rate  Max 1-Sec Rate  Max 1-Sec Time  Max 5-Sec Rate  Max 5-Sec Time  Max 10Sec Rate  Max 10Sec Time  Avg Frame Size  Max Frame Size  Max Frame Time
------          -------         ------          --------------  --------------  --------------  --------------  --------------  --------------  --------------  --------------  --------------  --------------
1               0:00:00.000     0:27:27.178     10 001 kbps     20 920 kbps     00:13:35.781    15 722 kbps     00:13:34.580    13 836 kbps     00:13:34.947    41 712 bytes    213 985 bytes   00:13:40.252
[br]
STREAM DIAGNOSTICS:
[br]
File            PID             Type            Codec           Language                Seconds                 Bitrate                 Bytes           Packets
----            ---             ----            -----           --------                --------------          --------------          -------------   -----
00008.M2TS      4113 (0x1011)   0x1B            AVC                                     1647,112                10 001                  2 059 169 172   11 220 014
00008.M2TS      4352 (0x1100)   0x80            LPCM            eng (English)           1647,112                1 542                   317 576 304     1 976 616
00008.M2TS      4608 (0x1200)   0x90            PGS             eng (English)           1647,112                0                       165             8
00008.M2TS      4609 (0x1201)   0x90            PGS             fra (French)            1647,112                67                      13 844 407      77 670
00008.M2TS      4610 (0x1202)   0x90            PGS             deu (German)            1647,112                76                      15 655 779      87 537
00008.M2TS      4611 (0x1203)   0x90            PGS             spa (Spanish)           1647,112                69                      14 125 473      79 207
00008.M2TS      4612 (0x1204)   0x90            PGS             ita (Italian)           1647,112                64                      13 212 346      74 235
00008.M2TS      4613 (0x1205)   0x90            PGS             nld (Dutch)             1647,112                64                      13 171 897      74 006
<---- END FORUMS PASTE ---->
QUICK SUMMARY:
Disc Title: Адамс Джон - Доктор Атомик (Het Muziektheater, Amsterdam) (2007) (Blu-ray 1080i, AVC, TrueHD 5.1)
Disc Size: 48 845 807 912 bytes
Protection: AACS
BD-Java: No
Playlist: 00006.MPLS
Size: 2 619 740 160 bytes
Length: 0:27:27.178
Total Bitrate: 12,72 Mbps
Video: MPEG-4 AVC Video / 10001 kbps / 1080i / 29,970 fps / 16:9 / High Profile 4.1
Audio: English / LPCM Audio / 2.0 / 48 kHz / 1536 kbps / 16-bit
Subtitle: English / 0,001 kbps
Subtitle: French / 67,239 kbps
Subtitle: German / 76,037 kbps
Subtitle: Spanish / 68,604 kbps
Subtitle: Italian / 64,170 kbps
Subtitle: Dutch / 63,973 kbps
********************
PLAYLIST: 00001.MPLS
********************
<--- BEGIN FORUMS PASTE --->
Total   Video
Title                                                           Codec   Length  Movie Size      Disc Size       Bitrate Bitrate Main Audio Track                          Secondary Audio Track
-----                                                           ------  ------- --------------  --------------  ------- ------- ------------------                        ---------------------
00001.MPLS                                                      AVC     0:09:34 922 441 728     48 845 807 912  12,84   10,00   LPCM 2.0 1536Kbps (48kHz/16-bit)
DISC INFO:
[br]
Disc Title:     Адамс Джон - Доктор Атомик (Het Muziektheater, Amsterdam) (2007) (Blu-ray 1080i, AVC, TrueHD 5.1)
Disc Size:      48 845 807 912 bytes
Protection:     AACS
BD-Java:        No
BDInfo:         0.5.8
[br]
PLAYLIST REPORT:
[br]
Name:                   00001.MPLS
Length:                 0:09:34.607 (h:m:s.ms)
Size:                   922 441 728 bytes
Total Bitrate:          12,84 Mbps
[br]
VIDEO:
[br]
Codec                   Bitrate             Description
-----                   -------             -----------
MPEG-4 AVC Video        10000 kbps          1080i / 29,970 fps / 16:9 / High Profile 4.1
[br]
AUDIO:
[br]
Codec                           Language        Bitrate         Description
-----                           --------        -------         -----------
LPCM Audio                      English         1536 kbps       2.0 / 48 kHz / 1536 kbps / 16-bit
[br]
SUBTITLES:
[br]
Codec                           Language        Bitrate         Description
-----                           --------        -------         -----------
Presentation Graphics           English         0,002 kbps
Presentation Graphics           French          89,697 kbps
Presentation Graphics           German          92,812 kbps
Presentation Graphics           Spanish         94,294 kbps
Presentation Graphics           Italian         83,658 kbps
Presentation Graphics           Dutch           92,758 kbps
[br]
FILES:
[br]
Name            Time In         Length          Size            Total Bitrate
----            -------         ------          ----            -------------
00010.M2TS      0:00:00.000     0:09:34.607     922 441 728     12 843
[br]
CHAPTERS:
[br]
Number          Time In         Length          Avg Video Rate  Max 1-Sec Rate  Max 1-Sec Time  Max 5-Sec Rate  Max 5-Sec Time  Max 10Sec Rate  Max 10Sec Time  Avg Frame Size  Max Frame Size  Max Frame Time
------          -------         ------          --------------  --------------  --------------  --------------  --------------  --------------  --------------  --------------  --------------  --------------
1               0:00:00.000     0:09:34.607     10 000 kbps     19 878 kbps     00:02:55.975    15 094 kbps     00:07:41.561    13 564 kbps     00:07:41.561    41 710 bytes    364 821 bytes   00:00:58.057
[br]
STREAM DIAGNOSTICS:
[br]
File            PID             Type            Codec           Language                Seconds                 Bitrate                 Bytes           Packets
----            ---             ----            -----           --------                --------------          --------------          -------------   -----
00010.M2TS      4113 (0x1011)   0x1B            AVC                                     574,541                 10 002                  718 284 692     3 913 819
00010.M2TS      4352 (0x1100)   0x80            LPCM            eng (English)           574,541                 1 543                   110 784 808     689 532
00010.M2TS      4608 (0x1200)   0x90            PGS             eng (English)           574,541                 0                       165             8
00010.M2TS      4609 (0x1201)   0x90            PGS             fra (French)            574,541                 90                      6 442 592       35 992
00010.M2TS      4610 (0x1202)   0x90            PGS             deu (German)            574,541                 93                      6 666 324       37 205
00010.M2TS      4611 (0x1203)   0x90            PGS             spa (Spanish)           574,541                 94                      6 772 745       37 780
00010.M2TS      4612 (0x1204)   0x90            PGS             ita (Italian)           574,541                 84                      6 008 793       33 619
00010.M2TS      4613 (0x1205)   0x90            PGS             nld (Dutch)             574,541                 93                      6 662 427       37 177
<---- END FORUMS PASTE ---->
QUICK SUMMARY:
Disc Title: Адамс Джон - Доктор Атомик (Het Muziektheater, Amsterdam) (2007) (Blu-ray 1080i, AVC, TrueHD 5.1)
Disc Size: 48 845 807 912 bytes
Protection: AACS
BD-Java: No
Playlist: 00001.MPLS
Size: 922 441 728 bytes
Length: 0:09:34.607
Total Bitrate: 12,84 Mbps
Video: MPEG-4 AVC Video / 10000 kbps / 1080i / 29,970 fps / 16:9 / High Profile 4.1
Audio: English / LPCM Audio / 2.0 / 48 kHz / 1536 kbps / 16-bit
Subtitle: English / 0,002 kbps
Subtitle: French / 89,697 kbps
Subtitle: German / 92,812 kbps
Subtitle: Spanish / 94,294 kbps
Subtitle: Italian / 83,658 kbps
Subtitle: Dutch / 92,758 kbps
********************
PLAYLIST: 00005.MPLS
********************
<--- BEGIN FORUMS PASTE --->
Total   Video
Title                                                           Codec   Length  Movie Size      Disc Size       Bitrate Bitrate Main Audio Track                          Secondary Audio Track
-----                                                           ------  ------- --------------  --------------  ------- ------- ------------------                        ---------------------
00005.MPLS                                                      AVC     0:07:56 756 006 912     48 845 807 912  12,69   10,00   LPCM 2.0 1536Kbps (48kHz/16-bit)
DISC INFO:
[br]
Disc Title:     Адамс Джон - Доктор Атомик (Het Muziektheater, Amsterdam) (2007) (Blu-ray 1080i, AVC, TrueHD 5.1)
Disc Size:      48 845 807 912 bytes
Protection:     AACS
BD-Java:        No
BDInfo:         0.5.8
[br]
PLAYLIST REPORT:
[br]
Name:                   00005.MPLS
Length:                 0:07:56.509 (h:m:s.ms)
Size:                   756 006 912 bytes
Total Bitrate:          12,69 Mbps
[br]
VIDEO:
[br]
Codec                   Bitrate             Description
-----                   -------             -----------
MPEG-4 AVC Video        10004 kbps          1080i / 29,970 fps / 16:9 / High Profile 4.1
[br]
AUDIO:
[br]
Codec                           Language        Bitrate         Description
-----                           --------        -------         -----------
LPCM Audio                      English         1536 kbps       2.0 / 48 kHz / 1536 kbps / 16-bit
[br]
SUBTITLES:
[br]
Codec                           Language        Bitrate         Description
-----                           --------        -------         -----------
Presentation Graphics           English         1,144 kbps
Presentation Graphics           French          59,686 kbps
Presentation Graphics           German          66,941 kbps
Presentation Graphics           Spanish         62,875 kbps
Presentation Graphics           Italian         59,256 kbps
Presentation Graphics           Dutch           54,983 kbps
[br]
FILES:
[br]
Name            Time In         Length          Size            Total Bitrate
----            -------         ------          ----            -------------
00007.M2TS      0:00:00.000     0:07:56.509     756 006 912     12 692
[br]
CHAPTERS:
[br]
Number          Time In         Length          Avg Video Rate  Max 1-Sec Rate  Max 1-Sec Time  Max 5-Sec Rate  Max 5-Sec Time  Max 10Sec Rate  Max 10Sec Time  Avg Frame Size  Max Frame Size  Max Frame Time
------          -------         ------          --------------  --------------  --------------  --------------  --------------  --------------  --------------  --------------  --------------  --------------
1               0:00:00.000     0:07:56.509     10 004 kbps     20 522 kbps     00:06:01.928    18 965 kbps     00:06:01.928    17 487 kbps     00:02:26.646    41 725 bytes    216 717 bytes   00:02:20.740
[br]
STREAM DIAGNOSTICS:
[br]
File            PID             Type            Codec           Language                Seconds                 Bitrate                 Bytes           Packets
----            ---             ----            -----           --------                --------------          --------------          -------------   -----
00007.M2TS      4113 (0x1011)   0x1B            AVC                                     476,376                 10 007                  595 870 296     3 246 798
00007.M2TS      4352 (0x1100)   0x80            LPCM            eng (English)           476,376                 1 543                   91 871 128      571 812
00007.M2TS      4608 (0x1200)   0x90            PGS             eng (English)           476,376                 1                       68 142          385
00007.M2TS      4609 (0x1201)   0x90            PGS             fra (French)            476,376                 60                      3 555 094       20 169
00007.M2TS      4610 (0x1202)   0x90            PGS             deu (German)            476,376                 67                      3 987 224       22 520
00007.M2TS      4611 (0x1203)   0x90            PGS             spa (Spanish)           476,376                 63                      3 745 044       21 207
00007.M2TS      4612 (0x1204)   0x90            PGS             ita (Italian)           476,376                 59                      3 529 520       20 037
00007.M2TS      4613 (0x1205)   0x90            PGS             nld (Dutch)             476,376                 55                      3 274 992       18 613
<---- END FORUMS PASTE ---->
QUICK SUMMARY:
Disc Title: Адамс Джон - Доктор Атомик (Het Muziektheater, Amsterdam) (2007) (Blu-ray 1080i, AVC, TrueHD 5.1)
Disc Size: 48 845 807 912 bytes
Protection: AACS
BD-Java: No
Playlist: 00005.MPLS
Size: 756 006 912 bytes
Length: 0:07:56.509
Total Bitrate: 12,69 Mbps
Video: MPEG-4 AVC Video / 10004 kbps / 1080i / 29,970 fps / 16:9 / High Profile 4.1
Audio: English / LPCM Audio / 2.0 / 48 kHz / 1536 kbps / 16-bit
Subtitle: English / 1,144 kbps
Subtitle: French / 59,686 kbps
Subtitle: German / 66,941 kbps
Subtitle: Spanish / 62,875 kbps
Subtitle: Italian / 59,256 kbps
Subtitle: Dutch / 54,983 kbps
********************
PLAYLIST: 00004.MPLS
********************
<--- BEGIN FORUMS PASTE --->
Total   Video
Title                                                           Codec   Length  Movie Size      Disc Size       Bitrate Bitrate Main Audio Track                          Secondary Audio Track
-----                                                           ------  ------- --------------  --------------  ------- ------- ------------------                        ---------------------
00004.MPLS                                                      AVC     0:06:33 624 451 584     48 845 807 912  12,70   10,00   LPCM 2.0 1536Kbps (48kHz/16-bit)
DISC INFO:
[br]
Disc Title:     Адамс Джон - Доктор Атомик (Het Muziektheater, Amsterdam) (2007) (Blu-ray 1080i, AVC, TrueHD 5.1)
Disc Size:      48 845 807 912 bytes
Protection:     AACS
BD-Java:        No
BDInfo:         0.5.8
[br]
PLAYLIST REPORT:
[br]
Name:                   00004.MPLS
Length:                 0:06:33.426 (h:m:s.ms)
Size:                   624 451 584 bytes
Total Bitrate:          12,70 Mbps
[br]
VIDEO:
[br]
Codec                   Bitrate             Description
-----                   -------             -----------
MPEG-4 AVC Video        10003 kbps          1080i / 29,970 fps / 16:9 / High Profile 4.1
[br]
AUDIO:
[br]
Codec                           Language        Bitrate         Description
-----                           --------        -------         -----------
LPCM Audio                      English         1536 kbps       2.0 / 48 kHz / 1536 kbps / 16-bit
[br]
SUBTITLES:
[br]
Codec                           Language        Bitrate         Description
-----                           --------        -------         -----------
Presentation Graphics           English         2,850 kbps
Presentation Graphics           French          61,467 kbps
Presentation Graphics           German          69,481 kbps
Presentation Graphics           Spanish         62,258 kbps
Presentation Graphics           Italian         57,660 kbps
Presentation Graphics           Dutch           57,230 kbps
[br]
FILES:
[br]
Name            Time In         Length          Size            Total Bitrate
----            -------         ------          ----            -------------
00006.M2TS      0:00:00.000     0:06:33.426     624 451 584     12 698
[br]
CHAPTERS:
[br]
Number          Time In         Length          Avg Video Rate  Max 1-Sec Rate  Max 1-Sec Time  Max 5-Sec Rate  Max 5-Sec Time  Max 10Sec Rate  Max 10Sec Time  Avg Frame Size  Max Frame Size  Max Frame Time
------          -------         ------          --------------  --------------  --------------  --------------  --------------  --------------  --------------  --------------  --------------  --------------
1               0:00:00.000     0:06:33.426     10 003 kbps     30 842 kbps     00:01:53.379    27 711 kbps     00:01:49.509    24 990 kbps     00:01:47.874    41 722 bytes    498 428 bytes   00:02:26.346
[br]
STREAM DIAGNOSTICS:
[br]
File            PID             Type            Codec           Language                Seconds                 Bitrate                 Bytes           Packets
----            ---             ----            -----           --------                --------------          --------------          -------------   -----
00006.M2TS      4113 (0x1011)   0x1B            AVC                                     393,293                 10 007                  491 946 123     2 680 501
00006.M2TS      4352 (0x1100)   0x80            LPCM            eng (English)           393,293                 1 543                   75 853 304      472 116
00006.M2TS      4608 (0x1200)   0x90            PGS             eng (English)           393,293                 3                       140 151         804
00006.M2TS      4609 (0x1201)   0x90            PGS             fra (French)            393,293                 61                      3 022 820       17 099
00006.M2TS      4610 (0x1202)   0x90            PGS             deu (German)            393,293                 70                      3 416 955       19 247
00006.M2TS      4611 (0x1203)   0x90            PGS             spa (Spanish)           393,293                 62                      3 061 746       17 315
00006.M2TS      4612 (0x1204)   0x90            PGS             ita (Italian)           393,293                 58                      2 835 609       16 089
00006.M2TS      4613 (0x1205)   0x90            PGS             nld (Dutch)             393,293                 57                      2 814 487       15 970
<---- END FORUMS PASTE ---->
QUICK SUMMARY:
Disc Title: Адамс Джон - Доктор Атомик (Het Muziektheater, Amsterdam) (2007) (Blu-ray 1080i, AVC, TrueHD 5.1)
Disc Size: 48 845 807 912 bytes
Protection: AACS
BD-Java: No
Playlist: 00004.MPLS
Size: 624 451 584 bytes
Length: 0:06:33.426
Total Bitrate: 12,70 Mbps
Video: MPEG-4 AVC Video / 10003 kbps / 1080i / 29,970 fps / 16:9 / High Profile 4.1
Audio: English / LPCM Audio / 2.0 / 48 kHz / 1536 kbps / 16-bit
Subtitle: English / 2,850 kbps
Subtitle: French / 61,467 kbps
Subtitle: German / 69,481 kbps
Subtitle: Spanish / 62,258 kbps
Subtitle: Italian / 57,660 kbps
Subtitle: Dutch / 57,230 kbps
********************
PLAYLIST: 00002.MPLS
********************
<--- BEGIN FORUMS PASTE --->
Total   Video
Title                                                           Codec   Length  Movie Size      Disc Size       Bitrate Bitrate Main Audio Track                          Secondary Audio Track
-----                                                           ------  ------- --------------  --------------  ------- ------- ------------------                        ---------------------
00002.MPLS                                                      AVC     0:04:33 505 061 376     48 845 807 912  14,78   12,00   LPCM 2.0 1536Kbps (48kHz/16-bit)
DISC INFO:
[br]
Disc Title:     Адамс Джон - Доктор Атомик (Het Muziektheater, Amsterdam) (2007) (Blu-ray 1080i, AVC, TrueHD 5.1)
Disc Size:      48 845 807 912 bytes
Protection:     AACS
BD-Java:        No
BDInfo:         0.5.8
[br]
PLAYLIST REPORT:
[br]
Name:                   00002.MPLS
Length:                 0:04:33.306 (h:m:s.ms)
Size:                   505 061 376 bytes
Total Bitrate:          14,78 Mbps
[br]
VIDEO:
[br]
Codec                   Bitrate             Description
-----                   -------             -----------
MPEG-4 AVC Video        12005 kbps          1080i / 29,970 fps / 16:9 / High Profile 4.1
[br]
AUDIO:
[br]
Codec                           Language        Bitrate         Description
-----                           --------        -------         -----------
LPCM Audio                      English         1536 kbps       2.0 / 48 kHz / 1536 kbps / 16-bit
[br]
SUBTITLES:
[br]
Codec                           Language        Bitrate         Description
-----                           --------        -------         -----------
Presentation Graphics           English         5,432 kbps
Presentation Graphics           French          62,338 kbps
Presentation Graphics           German          67,211 kbps
Presentation Graphics           Spanish         60,449 kbps
Presentation Graphics           Italian         57,543 kbps
Presentation Graphics           Dutch           54,080 kbps
[br]
FILES:
[br]
Name            Time In         Length          Size            Total Bitrate
----            -------         ------          ----            -------------
00011.M2TS      0:00:00.000     0:04:33.306     505 061 376     14 784
[br]
CHAPTERS:
[br]
Number          Time In         Length          Avg Video Rate  Max 1-Sec Rate  Max 1-Sec Time  Max 5-Sec Rate  Max 5-Sec Time  Max 10Sec Rate  Max 10Sec Time  Avg Frame Size  Max Frame Size  Max Frame Time
------          -------         ------          --------------  --------------  --------------  --------------  --------------  --------------  --------------  --------------  --------------  --------------
1               0:00:00.000     0:04:33.306     12 005 kbps     22 349 kbps     00:04:18.224    20 296 kbps     00:02:05.892    18 536 kbps     00:01:32.358    50 071 bytes    341 100 bytes   00:02:36.923
[br]
STREAM DIAGNOSTICS:
[br]
File            PID             Type            Codec           Language                Seconds                 Bitrate                 Bytes           Packets
----            ---             ----            -----           --------                --------------          --------------          -------------   -----
00011.M2TS      4113 (0x1011)   0x1B            AVC                                     273,206                 12 009                  410 129 760     2 233 733
00011.M2TS      4352 (0x1100)   0x80            LPCM            eng (English)           273,206                 1 543                   52 694 168      327 972
00011.M2TS      4608 (0x1200)   0x90            PGS             eng (English)           273,206                 5                       185 566         1 065
00011.M2TS      4609 (0x1201)   0x90            PGS             fra (French)            273,206                 62                      2 129 674       12 102
00011.M2TS      4610 (0x1202)   0x90            PGS             deu (German)            273,206                 67                      2 296 134       13 003
00011.M2TS      4611 (0x1203)   0x90            PGS             spa (Spanish)           273,206                 60                      2 065 139       11 751
00011.M2TS      4612 (0x1204)   0x90            PGS             ita (Italian)           273,206                 58                      1 965 862       11 209
00011.M2TS      4613 (0x1205)   0x90            PGS             nld (Dutch)             273,206                 54                      1 847 549       10 508
<---- END FORUMS PASTE ---->
QUICK SUMMARY:
Disc Title: Адамс Джон - Доктор Атомик (Het Muziektheater, Amsterdam) (2007) (Blu-ray 1080i, AVC, TrueHD 5.1)
Disc Size: 48 845 807 912 bytes
Protection: AACS
BD-Java: No
Playlist: 00002.MPLS
Size: 505 061 376 bytes
Length: 0:04:33.306
Total Bitrate: 14,78 Mbps
Video: MPEG-4 AVC Video / 12005 kbps / 1080i / 29,970 fps / 16:9 / High Profile 4.1
Audio: English / LPCM Audio / 2.0 / 48 kHz / 1536 kbps / 16-bit
Subtitle: English / 5,432 kbps
Subtitle: French / 62,338 kbps
Subtitle: German / 67,211 kbps
Subtitle: Spanish / 60,449 kbps
Subtitle: Italian / 57,543 kbps
Subtitle: Dutch / 54,080 kbps
********************
PLAYLIST: 00003.MPLS
********************
<--- BEGIN FORUMS PASTE --->
Total   Video
Title                                                           Codec   Length  Movie Size      Disc Size       Bitrate Bitrate Main Audio Track                          Secondary Audio Track
-----                                                           ------  ------- --------------  --------------  ------- ------- ------------------                        ---------------------
00003.MPLS                                                      AVC     0:04:07 393 375 744     48 845 807 912  12,73   10,01   LPCM 2.0 1536Kbps (48kHz/16-bit)
DISC INFO:
[br]
Disc Title:     Адамс Джон - Доктор Атомик (Het Muziektheater, Amsterdam) (2007) (Blu-ray 1080i, AVC, TrueHD 5.1)
Disc Size:      48 845 807 912 bytes
Protection:     AACS
BD-Java:        No
BDInfo:         0.5.8
[br]
PLAYLIST REPORT:
[br]
Name:                   00003.MPLS
Length:                 0:04:07.280 (h:m:s.ms)
Size:                   393 375 744 bytes
Total Bitrate:          12,73 Mbps
[br]
VIDEO:
[br]
Codec                   Bitrate             Description
-----                   -------             -----------
MPEG-4 AVC Video        10007 kbps          1080i / 29,970 fps / 16:9 / High Profile 4.1
[br]
AUDIO:
[br]
Codec                           Language        Bitrate         Description
-----                           --------        -------         -----------
LPCM Audio                      English         1536 kbps       2.0 / 48 kHz / 1536 kbps / 16-bit
[br]
SUBTITLES:
[br]
Codec                           Language        Bitrate         Description
-----                           --------        -------         -----------
Presentation Graphics           English         0,005 kbps
Presentation Graphics           French          65,701 kbps
Presentation Graphics           German          73,264 kbps
Presentation Graphics           Spanish         66,258 kbps
Presentation Graphics           Italian         63,185 kbps
Presentation Graphics           Dutch           65,783 kbps
[br]
FILES:
[br]
Name            Time In         Length          Size            Total Bitrate
----            -------         ------          ----            -------------
00012.M2TS      0:00:00.000     0:04:07.280     393 375 744     12 726
[br]
CHAPTERS:
[br]
Number          Time In         Length          Avg Video Rate  Max 1-Sec Rate  Max 1-Sec Time  Max 5-Sec Rate  Max 5-Sec Time  Max 10Sec Rate  Max 10Sec Time  Avg Frame Size  Max Frame Size  Max Frame Time
------          -------         ------          --------------  --------------  --------------  --------------  --------------  --------------  --------------  --------------  --------------  --------------
1               0:00:00.000     0:04:07.280     10 007 kbps     19 529 kbps     00:01:45.705    17 729 kbps     00:01:45.338    17 304 kbps     00:01:40.400    41 738 bytes    239 648 bytes   00:03:43.856
[br]
STREAM DIAGNOSTICS:
[br]
File            PID             Type            Codec           Language                Seconds                 Bitrate                 Bytes           Packets
----            ---             ----            -----           --------                --------------          --------------          -------------   -----
00012.M2TS      4113 (0x1011)   0x1B            AVC                                     247,180                 10 011                  309 317 011     1 685 400
00012.M2TS      4352 (0x1100)   0x80            LPCM            eng (English)           247,180                 1 543                   47 676 548      296 742
00012.M2TS      4608 (0x1200)   0x90            PGS             eng (English)           247,180                 0                       165             8
00012.M2TS      4609 (0x1201)   0x90            PGS             fra (French)            247,180                 66                      2 030 815       11 486
00012.M2TS      4610 (0x1202)   0x90            PGS             deu (German)            247,180                 73                      2 264 598       12 753
00012.M2TS      4611 (0x1203)   0x90            PGS             spa (Spanish)           247,180                 66                      2 048 044       11 580
00012.M2TS      4612 (0x1204)   0x90            PGS             ita (Italian)           247,180                 63                      1 953 050       11 063
00012.M2TS      4613 (0x1205)   0x90            PGS             nld (Dutch)             247,180                 66                      2 033 360       11 498
<---- END FORUMS PASTE ---->
QUICK SUMMARY:
Disc Title: Адамс Джон - Доктор Атомик (Het Muziektheater, Amsterdam) (2007) (Blu-ray 1080i, AVC, TrueHD 5.1)
Disc Size: 48 845 807 912 bytes
Protection: AACS
BD-Java: No
Playlist: 00003.MPLS
Size: 393 375 744 bytes
Length: 0:04:07.280
Total Bitrate: 12,73 Mbps
Video: MPEG-4 AVC Video / 10007 kbps / 1080i / 29,970 fps / 16:9 / High Profile 4.1
Audio: English / LPCM Audio / 2.0 / 48 kHz / 1536 kbps / 16-bit
Subtitle: English / 0,005 kbps
Subtitle: French / 65,701 kbps
Subtitle: German / 73,264 kbps
Subtitle: Spanish / 66,258 kbps
Subtitle: Italian / 63,185 kbps
Subtitle: Dutch / 65,783 kbps
********************
PLAYLIST: 00008.MPLS
********************
<--- BEGIN FORUMS PASTE --->
Total   Video
Title                                                           Codec   Length  Movie Size      Disc Size       Bitrate Bitrate Main Audio Track                          Secondary Audio Track
-----                                                           ------  ------- --------------  --------------  ------- ------- ------------------                        ---------------------
00008.MPLS                                                      AVC     0:01:17 251 529 216     48 845 807 912  26,11   24,95
DISC INFO:
[br]
Disc Title:     Адамс Джон - Доктор Атомик (Het Muziektheater, Amsterdam) (2007) (Blu-ray 1080i, AVC, TrueHD 5.1)
Disc Size:      48 845 807 912 bytes
Protection:     AACS
BD-Java:        No
BDInfo:         0.5.8
[br]
PLAYLIST REPORT:
[br]
Name:                   00008.MPLS
Length:                 0:01:17.077 (h:m:s.ms)
Size:                   251 529 216 bytes
Total Bitrate:          26,11 Mbps
[br]
VIDEO:
[br]
Codec                   Bitrate             Description
-----                   -------             -----------
MPEG-4 AVC Video        24950 kbps          1080i / 29,970 fps / 16:9 / High Profile 4.1
[br]
FILES:
[br]
Name            Time In         Length          Size            Total Bitrate
----            -------         ------          ----            -------------
00009.M2TS      0:00:00.000     0:01:17.077     251 529 216     26 107
[br]
CHAPTERS:
[br]
Number          Time In         Length          Avg Video Rate  Max 1-Sec Rate  Max 1-Sec Time  Max 5-Sec Rate  Max 5-Sec Time  Max 10Sec Rate  Max 10Sec Time  Avg Frame Size  Max Frame Size  Max Frame Time
------          -------         ------          --------------  --------------  --------------  --------------  --------------  --------------  --------------  --------------  --------------  --------------
1               0:00:00.000     0:01:17.077     24 950 kbps     27 998 kbps     00:00:16.249    25 996 kbps     00:00:01.000    25 347 kbps     00:00:01.000    104 063 bytes   782 288 bytes   00:00:56.056
[br]
STREAM DIAGNOSTICS:
[br]
File            PID             Type            Codec           Language                Seconds                 Bitrate                 Bytes           Packets
----            ---             ----            -----           --------                --------------          --------------          -------------   -----
00009.M2TS      4113 (0x1011)   0x1B            AVC                                     76,977                  24 983                  240 386 200     1 307 447
<---- END FORUMS PASTE ---->
QUICK SUMMARY:
Disc Title: Адамс Джон - Доктор Атомик (Het Muziektheater, Amsterdam) (2007) (Blu-ray 1080i, AVC, TrueHD 5.1)
Disc Size: 48 845 807 912 bytes
Protection: AACS
BD-Java: No
Playlist: 00008.MPLS
Size: 251 529 216 bytes
Length: 0:01:17.077
Total Bitrate: 26,11 Mbps
Video: MPEG-4 AVC Video / 24950 kbps / 1080i / 29,970 fps / 16:9 / High Profile 4.1
********************
PLAYLIST: 00007.MPLS
********************
<--- BEGIN FORUMS PASTE --->
Total   Video
Title                                                           Codec   Length  Movie Size      Disc Size       Bitrate Bitrate Main Audio Track                          Secondary Audio Track
-----                                                           ------  ------- --------------  --------------  ------- ------- ------------------                        ---------------------
00007.MPLS                                                      AVC     0:00:20 33 853 440      48 845 807 912  12,92   12,31
DISC INFO:
[br]
Disc Title:     Адамс Джон - Доктор Атомик (Het Muziektheater, Amsterdam) (2007) (Blu-ray 1080i, AVC, TrueHD 5.1)
Disc Size:      48 845 807 912 bytes
Protection:     AACS
BD-Java:        No
BDInfo:         0.5.8
[br]
PLAYLIST REPORT:
[br]
Name:                   00007.MPLS
Length:                 0:00:20.954 (h:m:s.ms)
Size:                   33 853 440 bytes
Total Bitrate:          12,92 Mbps
[br]
VIDEO:
[br]
Codec                   Bitrate             Description
-----                   -------             -----------
MPEG-4 AVC Video        12310 kbps          1080i / 29,970 fps / 16:9 / High Profile 4.1
[br]
FILES:
[br]
Name            Time In         Length          Size            Total Bitrate
----            -------         ------          ----            -------------
00000.M2TS      0:00:00.000     0:00:14.014     16 410 624      9 368
00001.M2TS      0:00:14.014     0:00:06.940     17 442 816      20 106
[br]
CHAPTERS:
[br]
Number          Time In         Length          Avg Video Rate  Max 1-Sec Rate  Max 1-Sec Time  Max 5-Sec Rate  Max 5-Sec Time  Max 10Sec Rate  Max 10Sec Time  Avg Frame Size  Max Frame Size  Max Frame Time
------          -------         ------          --------------  --------------  --------------  --------------  --------------  --------------  --------------  --------------  --------------  --------------
1               0:00:00.000     0:00:14.014     8 907 kbps      10 475 kbps     00:00:07.807    10 095 kbps     00:00:03.803    10 014 kbps     00:00:02.435    37 063 bytes    101 117 bytes   00:00:08.008
2               0:00:14.014     0:00:06.940     19 181 kbps     20 000 kbps     00:00:14.247    20 000 kbps     00:00:14.247    0 kbps          00:00:00.000    80 387 bytes    83 416 bytes    00:00:14.280
[br]
STREAM DIAGNOSTICS:
[br]
File            PID             Type            Codec           Language                Seconds                 Bitrate                 Bytes           Packets
----            ---             ----            -----           --------                --------------          --------------          -------------   -----
00000.M2TS      4113 (0x1011)   0x1B            AVC                                     13,914                  8 970                   15 600 995      84 981
00001.M2TS      4113 (0x1011)   0x1B            AVC                                     6,874                   19 370                  16 642 506      90 584
<---- END FORUMS PASTE ---->
QUICK SUMMARY:
Disc Title: Адамс Джон - Доктор Атомик (Het Muziektheater, Amsterdam) (2007) (Blu-ray 1080i, AVC, TrueHD 5.1)
Disc Size: 48 845 807 912 bytes
Protection: AACS
BD-Java: No
Playlist: 00007.MPLS
Size: 33 853 440 bytes
Length: 0:00:20.954
Total Bitrate: 12,92 Mbps
Video: MPEG-4 AVC Video / 12310 kbps / 1080i / 29,970 fps / 16:9 / High Profile 4.1
Семпл

Скриншоты


Скриншоты доп. материалов





Показать сообщения:    

Текущее время: 04-Дек 17:19

Часовой пояс: UTC + 3


Вы не можете начинать темы
Вы не можете отвечать на сообщения
Вы не можете редактировать свои сообщения
Вы не можете удалять свои сообщения
Вы не можете голосовать в опросах
Вы не можете прикреплять файлы к сообщениям
Вы не можете скачивать файлы