Франко Альфано - Сирано де Бержерак (Тициано Манчини, Патрик Фурнилье; Плаcидо Доминго) / Franco Alfano - Cyrano de Bergerac (Tiziano Mancini, Patrick Fournillier; Placido Domingo, Radvanovsky, Chacon Cruz, Gilfry) [2007, Opera, Blu-ray 1080i]


 

[Цитировать]

Франко Альфано - Сирано де Бержерак / Franco Alfano - Cyrano de Bergerac
Год выпуска: 2007
Лейбл: Naxos, Unitel Classica
Страна-производитель: США
Жанр: Opera
Продолжительность: 02:21:29
Язык: Французский
Режиссер: Tiziano Mancini (Тициано Манчини)
Дирижер: Patrick Fournillier (Патрик Фурнилье)
Исполнители:
Plácido Domingo (Плаcидо Доминго) - Cyrano de Bergerac,
Sondra Radvanovsky (Сондра Радвановски) - Roxane,
Arturo Chacón Cruz (Артуро Чакон-Крус) - Christian,
Rodney Gilfry (Родни Гилфри) - De Guiche,
Corrado Carmelo Caruso (Коррадо Кармело Карузо) - Ragueneau,
Roberto Accurso (Роберто Аккурсо) - De Valvert,
Javier Franco (Хавьер Франко) - Carbon,
Itxaro Mentxaka (Ичаро Менчака) - La Duègne / Sister Marthe,
Nahuel di Pierro (Науэль ди Пьеро) - Le Bret,
Silvia Vázquez (Сильвия Васкес) - Lise / A Nun,
Miguel Solá (Мигель Сола) - Lignière,
Juan José Navarro (Хуан Жозе Наварро) - The Musketeer,
Juan Felipe Durá (Хуан Фелипе Дура) - A Cook,
Antonio Lozano Mora (Антонио Лозано Мора) - First Sentinel,
Antonio Gómez Cano (Антонио Гомес Кано) - Second Sentinel,
Amadis de Murga (Амадис де Мурга) - Montfleury,
Rubén Belmonte (Рубен Бельмонте) - A Spanish Officer
Cor de la Generalitat Valenciana, Orchestra de la Comunitat Valenciana (хор и оркестр автономного округа Валенсия)
Описание: История, рассказывающая о независимом, профессиональном и горделивом стихотворце Сирано, главное кредо жизни тот или иной оставаться собой в любые годы заслуживает восхищения и почтения, а также не может не грозить суровыми темами. Полная героизма пронзительная история сравнительно смелого бойца, куртуазного кавалера и стихотворца по имени Сирано де Бержерак. Сирано страстно влюблен в свою кузину, тот или иной зовут Роксана. Меж тем она о эмоциях мужчины даже не додумывается. Сирано неимоверно храбр на поле ругани и бесчисленных дуэлях, да и в не наименьшей ступени робок в тяжбах амурных. Сирано строчит девушке амурные горячие послания от имени товарища, имя тот или иной Кристиан. Благодаря амурным признаниям и стихам Кристиан подчиняет сердечко Роксаны, но внезапно гибнет в военных деяньях, так и не успев девушке признаться в том, кто в реальности приходит творцом нацарапанного. Меж тем, Сирано же до самой погибели бережёт в для себя принесенную тайну.

Оригинальное описание

The story of Edmond Rostand's epic romantic drama Cyrano de Bergerac (1897) should be known to most audiences from the various film versions that have been made - some of them even predating Alfano's 1937 opera - the most notable being Gérard Depardieu's performance as the long-nosed poet in Jean-Paul Rappeneau's popular French film from 1990, but it may also be known to more through Steve Martin's modern updating of the role in Roxane. The story however is essentially the same, that of a man with an exceedingly large nose that disfigures his face, who believes that he is ugly and unworthy of the love of his beautiful cousin Roxane. Working closely to Rostand's original text, Rappeneau's film captured all the comedy, wit, romance and tragedy of the situation, retaining the verse format of the original, and did it so well that it's impossible for anyone who knows and loves the film version not to measure up Franco Alfano's opera against it. It has to be said that the opera compares very favourably, working so naturally that one wonders why it isn't better known and more frequently performed.
Filmed at the Palau de les Arts 'Reina Sofía', Valencia, 8, 11 & 18 February 2007.
Бонус: Фрагменты оперы без звука (00:01:30)
Франко Альфано
Качество видео: Blu-ray
Формат/Контейнер: BDMV
Видео кодек: MPEG2
Аудио кодек: LPCM, DTS
Видео поток: 1920x1080i, MPEG-2 Video, 29.970 fps, 16:9, 24982 kbps
Аудио поток 1: LPCM, 2 ch, 48 kHz, 16-bit, 1536 kbps
Аудио поток 2: DTS-HD MA, 5.1 ch, 48 kHz, 16-bit, 2297 kbps (DTS Core: 5.1 / 48 kHz / 1509 kbps / 16-bit)
Субтитры: Английские, французские, испанские

BD-Info

Disc Title: Альфано - Сирано де Бержерак (de la Comunitat Valenciana) (2007) (Blu-ray 1080i, MPEG-2, DTS-HD 5.1)
Disc Size: 32 991 634 818 bytes
Protection: AACS
BD-Java: Yes
BDInfo: 0.5.8
Notes:
BDINFO HOME:
Cinema Squid
http://www.cinemasquid.com/blu-ray/tools/bdinfo
INCLUDES FORUMS REPORT FOR:
AVS Forum Blu-ray Audio and Video Specifications Thread
http://www.avsforum.com/avs-vb/showthread.php?t=1155731
********************
PLAYLIST: 00001.MPLS
********************
<--- BEGIN FORUMS PASTE --->
Total   Video
Title                                                           Codec   Length  Movie Size      Disc Size       Bitrate Bitrate Main Audio Track                          Secondary Audio Track
-----                                                           ------  ------- --------------  --------------  ------- ------- ------------------                        ---------------------
00001.MPLS                                                      MPEG-2  2:21:29 32 592 531 456  32 991 634 818  30,71   24,98   LPCM 2.0 1536Kbps (48kHz/16-bit)          DTS-HD Master 5.1 2297Kbps (48kHz/16-bit)
DISC INFO:
[br]
Disc Title:     Альфано - Сирано де Бержерак (de la Comunitat Valenciana) (2007) (Blu-ray 1080i, MPEG-2, DTS-HD 5.1)
Disc Size:      32 991 634 818 bytes
Protection:     AACS
BD-Java:        Yes
BDInfo:         0.5.8
[br]
PLAYLIST REPORT:
[br]
Name:                   00001.MPLS
Length:                 2:21:29.981 (h:m:s.ms)
Size:                   32 592 531 456 bytes
Total Bitrate:          30,71 Mbps
[br]
VIDEO:
[br]
Codec                   Bitrate             Description
-----                   -------             -----------
MPEG-2 Video            24982 kbps          1080i / 29,970 fps / 16:9
[br]
AUDIO:
[br]
Codec                           Language        Bitrate         Description
-----                           --------        -------         -----------
LPCM Audio                      French          1536 kbps       2.0 / 48 kHz / 1536 kbps / 16-bit
DTS-HD Master Audio             French          2297 kbps       5.1 / 48 kHz / 2297 kbps / 16-bit (DTS Core: 5.1 / 48 kHz / 1509 kbps / 16-bit)
[br]
SUBTITLES:
[br]
Codec                           Language        Bitrate         Description
-----                           --------        -------         -----------
Presentation Graphics           English         22,183 kbps
Presentation Graphics           French          22,525 kbps
Presentation Graphics           Spanish         22,896 kbps
[br]
FILES:
[br]
Name            Time In         Length          Size            Total Bitrate
----            -------         ------          ----            -------------
00001.M2TS      0:00:00.000     2:21:29.981     32 592 531 456  30 712
[br]
CHAPTERS:
[br]
Number          Time In         Length          Avg Video Rate  Max 1-Sec Rate  Max 1-Sec Time  Max 5-Sec Rate  Max 5-Sec Time  Max 10Sec Rate  Max 10Sec Time  Avg Frame Size  Max Frame Size  Max Frame Time
------          -------         ------          --------------  --------------  --------------  --------------  --------------  --------------  --------------  --------------  --------------  --------------
1               0:00:00.000     0:02:00.954     23 471 kbps     32 341 kbps     00:00:06.373    30 031 kbps     00:00:31.931    29 643 kbps     00:00:32.065    97 867 bytes    453 944 bytes   00:00:07.374
2               0:02:00.954     0:04:16.956     25 828 kbps     34 109 kbps     00:05:30.496    30 043 kbps     00:06:02.362    29 502 kbps     00:05:55.555    107 723 bytes   449 731 bytes   00:05:56.456
3               0:06:17.910     0:06:17.744     25 655 kbps     32 669 kbps     00:07:51.571    29 283 kbps     00:07:51.237    28 423 kbps     00:08:03.683    107 003 bytes   438 411 bytes   00:10:47.913
4               0:12:35.654     0:03:50.263     24 990 kbps     31 905 kbps     00:12:48.701    30 052 kbps     00:12:46.098    28 621 kbps     00:12:46.098    104 228 bytes   356 127 bytes   00:12:46.132
5               0:16:25.918     0:03:45.558     24 505 kbps     30 882 kbps     00:16:52.344    28 442 kbps     00:16:25.918    27 851 kbps     00:16:43.435    102 204 bytes   392 850 bytes   00:17:48.934
6               0:20:11.476     0:05:23.189     26 639 kbps     33 556 kbps     00:22:47.199    31 028 kbps     00:20:34.132    30 296 kbps     00:20:36.468    111 108 bytes   435 717 bytes   00:20:35.634
7               0:25:34.666     0:08:44.056     23 888 kbps     30 173 kbps     00:33:52.363    27 787 kbps     00:33:52.864    27 432 kbps     00:33:51.562    99 634 bytes    401 172 bytes   00:30:05.670
8               0:34:18.723     0:05:41.774     26 311 kbps     32 675 kbps     00:37:06.490    30 111 kbps     00:38:22.633    29 055 kbps     00:39:39.810    109 738 bytes   487 303 bytes   00:39:49.387
9               0:40:00.498     0:03:16.930     26 090 kbps     32 028 kbps     00:42:39.957    29 313 kbps     00:41:10.968    28 554 kbps     00:41:29.119    108 816 bytes   447 426 bytes   00:41:12.069
10              0:43:17.428     0:03:55.034     23 708 kbps     30 402 kbps     00:44:19.256    27 762 kbps     00:46:52.009    27 456 kbps     00:46:48.105    98 883 bytes    391 790 bytes   00:43:37.181
11              0:47:12.462     0:09:21.327     24 941 kbps     31 130 kbps     00:55:59.923    28 777 kbps     00:56:22.679    28 236 kbps     00:56:23.646    104 023 bytes   386 837 bytes   00:47:54.872
12              0:56:33.790     0:03:48.261     24 572 kbps     29 730 kbps     00:56:54.677    27 768 kbps     00:59:30.633    27 044 kbps     00:57:16.533    102 485 bytes   361 577 bytes   00:56:54.711
13              1:00:22.051     0:04:40.480     25 052 kbps     31 249 kbps     01:02:20.136    28 338 kbps     01:01:43.966    27 954 kbps     01:01:42.665    104 489 bytes   350 139 bytes   01:02:03.252
14              1:05:02.531     0:06:39.565     25 534 kbps     31 164 kbps     01:11:04.326    29 066 kbps     01:11:04.326    28 619 kbps     01:09:26.061    106 500 bytes   428 200 bytes   01:10:13.475
15              1:11:42.097     0:04:07.113     24 861 kbps     30 651 kbps     01:12:40.356    28 186 kbps     01:12:40.356    27 646 kbps     01:14:05.774    103 693 bytes   375 498 bytes   01:13:18.293
16              1:15:49.211     0:09:39.145     24 167 kbps     30 221 kbps     01:16:56.511    27 495 kbps     01:23:13.154    26 821 kbps     01:16:55.310    100 797 bytes   372 819 bytes   01:21:06.127
17              1:25:28.356     0:05:19.719     25 172 kbps     30 335 kbps     01:29:40.808    28 484 kbps     01:30:06.601    27 991 kbps     01:30:06.601    104 989 bytes   353 597 bytes   01:30:10.671
18              1:30:48.075     0:02:14.100     24 878 kbps     30 031 kbps     01:31:09.564    28 380 kbps     01:31:09.430    28 107 kbps     01:31:09.630    103 761 bytes   382 125 bytes   01:31:14.435
19              1:33:02.176     0:07:09.996     25 711 kbps     33 132 kbps     01:38:10.751    29 756 kbps     01:38:10.751    29 315 kbps     01:37:48.996    107 237 bytes   435 107 bytes   01:38:10.851
20              1:40:12.172     0:03:23.436     24 344 kbps     29 505 kbps     01:40:13.173    27 326 kbps     01:40:12.339    26 164 kbps     01:42:28.842    101 533 bytes   289 161 bytes   01:42:34.448
21              1:43:35.609     0:05:32.665     26 216 kbps     33 564 kbps     01:47:16.863    30 536 kbps     01:48:07.948    30 005 kbps     01:48:08.114    109 341 bytes   420 097 bytes   01:47:17.431
22              1:49:08.275     0:06:15.074     24 802 kbps     30 584 kbps     01:49:14.080    28 386 kbps     01:49:13.813    27 106 kbps     01:54:55.355    103 447 bytes   411 884 bytes   01:49:15.849
23              1:55:23.349     0:05:20.853     25 400 kbps     29 952 kbps     01:56:54.807    27 385 kbps     01:58:02.508    27 072 kbps     01:58:02.575    105 938 bytes   347 278 bytes   01:58:02.708
24              2:00:44.203     0:03:32.712     24 295 kbps     28 271 kbps     02:00:44.237    26 585 kbps     02:00:44.237    26 329 kbps     02:00:44.237    101 332 bytes   338 335 bytes   02:02:18.297
25              2:04:16.916     0:03:51.731     24 558 kbps     30 206 kbps     02:06:45.798    27 682 kbps     02:06:45.464    27 409 kbps     02:06:01.654    102 427 bytes   327 863 bytes   02:05:06.899
26              2:08:08.647     0:06:51.544     25 092 kbps     32 139 kbps     02:10:49.875    30 042 kbps     02:10:49.875    28 681 kbps     02:09:40.773    104 654 bytes   386 629 bytes   02:09:42.541
27              2:15:00.192     0:06:29.789     23 318 kbps     31 478 kbps     02:19:24.556    29 239 kbps     02:19:20.652    28 977 kbps     02:19:20.118    97 264 bytes    417 837 bytes   02:20:49.407
[br]
STREAM DIAGNOSTICS:
[br]
File            PID             Type            Codec           Language                Seconds                 Bitrate                 Bytes           Packets
----            ---             ----            -----           --------                --------------          --------------          -------------   -----
00001.M2TS      4113 (0x1011)   0x02            MPEG-2                                  8489,848                24 982                  26 512 088 433  144 235 533
00001.M2TS      4352 (0x1100)   0x80            LPCM            fra (French)            8489,848                1 537                   1 631 403 946   10 153 996
00001.M2TS      4353 (0x1101)   0x86            DTS-HD MA       fra (French)            8489,848                2 297                   2 437 833 640   14 568 404
00001.M2TS      4608 (0x1200)   0x90            PGS             eng (English)           8489,848                22                      23 541 280      137 056
00001.M2TS      4609 (0x1201)   0x90            PGS             fra (French)            8489,848                23                      23 904 809      139 049
00001.M2TS      4610 (0x1202)   0x90            PGS             spa (Spanish)           8489,848                23                      24 297 915      141 205
<---- END FORUMS PASTE ---->
QUICK SUMMARY:
Disc Title: Альфано - Сирано де Бержерак (de la Comunitat Valenciana) (2007) (Blu-ray 1080i, MPEG-2, DTS-HD 5.1)
Disc Size: 32 991 634 818 bytes
Protection: AACS
BD-Java: Yes
Playlist: 00001.MPLS
Size: 32 592 531 456 bytes
Length: 2:21:29.981
Total Bitrate: 30,71 Mbps
Video: MPEG-2 Video / 24982 kbps / 1080i / 29,970 fps / 16:9
Audio: French / LPCM Audio / 2.0 / 48 kHz / 1536 kbps / 16-bit
Audio: French / DTS-HD Master Audio / 5.1 / 48 kHz / 2297 kbps / 16-bit (DTS Core: 5.1 / 48 kHz / 1509 kbps / 16-bit)
Subtitle: English / 22,183 kbps
Subtitle: French / 22,525 kbps
Subtitle: Spanish / 22,896 kbps
********************
PLAYLIST: 01001.MPLS
********************
<--- BEGIN FORUMS PASTE --->
Total   Video
Title                                                           Codec   Length  Movie Size      Disc Size       Bitrate Bitrate Main Audio Track                          Secondary Audio Track
-----                                                           ------  ------- --------------  --------------  ------- ------- ------------------                        ---------------------
01001.MPLS                                                      MPEG-2  2:21:29 32 592 531 456  32 991 634 818  30,71   24,98   LPCM 2.0 1536Kbps (48kHz/16-bit)          DTS-HD Master 5.1 2297Kbps (48kHz/16-bit)
DISC INFO:
[br]
Disc Title:     Альфано - Сирано де Бержерак (de la Comunitat Valenciana) (2007) (Blu-ray 1080i, MPEG-2, DTS-HD 5.1)
Disc Size:      32 991 634 818 bytes
Protection:     AACS
BD-Java:        Yes
BDInfo:         0.5.8
[br]
PLAYLIST REPORT:
[br]
Name:                   01001.MPLS
Length:                 2:21:29.981 (h:m:s.ms)
Size:                   32 592 531 456 bytes
Total Bitrate:          30,71 Mbps
[br]
VIDEO:
[br]
Codec                   Bitrate             Description
-----                   -------             -----------
MPEG-2 Video            24982 kbps          1080i / 29,970 fps / 16:9
[br]
AUDIO:
[br]
Codec                           Language        Bitrate         Description
-----                           --------        -------         -----------
LPCM Audio                      French          1536 kbps       2.0 / 48 kHz / 1536 kbps / 16-bit
DTS-HD Master Audio             French          2297 kbps       5.1 / 48 kHz / 2297 kbps / 16-bit (DTS Core: 5.1 / 48 kHz / 1509 kbps / 16-bit)
[br]
SUBTITLES:
[br]
Codec                           Language        Bitrate         Description
-----                           --------        -------         -----------
Presentation Graphics           English         22,183 kbps
Presentation Graphics           French          22,525 kbps
Presentation Graphics           Spanish         22,896 kbps
[br]
FILES:
[br]
Name            Time In         Length          Size            Total Bitrate
----            -------         ------          ----            -------------
00001.M2TS      0:00:00.000     2:21:29.981     32 592 531 456  30 712
[br]
CHAPTERS:
[br]
Number          Time In         Length          Avg Video Rate  Max 1-Sec Rate  Max 1-Sec Time  Max 5-Sec Rate  Max 5-Sec Time  Max 10Sec Rate  Max 10Sec Time  Avg Frame Size  Max Frame Size  Max Frame Time
------          -------         ------          --------------  --------------  --------------  --------------  --------------  --------------  --------------  --------------  --------------  --------------
1               0:00:00.000     0:02:00.954     23 471 kbps     32 341 kbps     00:00:06.373    30 031 kbps     00:00:31.931    29 643 kbps     00:00:32.065    97 867 bytes    453 944 bytes   00:00:07.374
2               0:02:00.954     0:04:16.956     25 828 kbps     34 109 kbps     00:05:30.496    30 043 kbps     00:06:02.362    29 502 kbps     00:05:55.555    107 723 bytes   449 731 bytes   00:05:56.456
3               0:06:17.910     0:06:17.744     25 655 kbps     32 669 kbps     00:07:51.571    29 283 kbps     00:07:51.237    28 423 kbps     00:08:03.683    107 003 bytes   438 411 bytes   00:10:47.913
4               0:12:35.654     0:03:50.263     24 990 kbps     31 905 kbps     00:12:48.701    30 052 kbps     00:12:46.098    28 621 kbps     00:12:46.098    104 228 bytes   356 127 bytes   00:12:46.132
5               0:16:25.918     0:03:45.558     24 505 kbps     30 882 kbps     00:16:52.344    28 442 kbps     00:16:25.918    27 851 kbps     00:16:43.435    102 204 bytes   392 850 bytes   00:17:48.934
6               0:20:11.476     0:05:23.189     26 639 kbps     33 556 kbps     00:22:47.199    31 028 kbps     00:20:34.132    30 296 kbps     00:20:36.468    111 108 bytes   435 717 bytes   00:20:35.634
7               0:25:34.666     0:08:44.056     23 888 kbps     30 173 kbps     00:33:52.363    27 787 kbps     00:33:52.864    27 432 kbps     00:33:51.562    99 634 bytes    401 172 bytes   00:30:05.670
8               0:34:18.723     0:05:41.774     26 311 kbps     32 675 kbps     00:37:06.490    30 111 kbps     00:38:22.633    29 055 kbps     00:39:39.810    109 738 bytes   487 303 bytes   00:39:49.387
9               0:40:00.498     0:03:16.930     26 090 kbps     32 028 kbps     00:42:39.957    29 313 kbps     00:41:10.968    28 554 kbps     00:41:29.119    108 816 bytes   447 426 bytes   00:41:12.069
10              0:43:17.428     0:03:55.034     23 708 kbps     30 402 kbps     00:44:19.256    27 762 kbps     00:46:52.009    27 456 kbps     00:46:48.105    98 883 bytes    391 790 bytes   00:43:37.181
11              0:47:12.462     0:09:21.327     24 941 kbps     31 130 kbps     00:55:59.923    28 777 kbps     00:56:22.679    28 236 kbps     00:56:23.646    104 023 bytes   386 837 bytes   00:47:54.872
12              0:56:33.790     0:03:48.261     24 572 kbps     29 730 kbps     00:56:54.677    27 768 kbps     00:59:30.633    27 044 kbps     00:57:16.533    102 485 bytes   361 577 bytes   00:56:54.711
13              1:00:22.051     0:04:40.480     25 052 kbps     31 249 kbps     01:02:20.136    28 338 kbps     01:01:43.966    27 954 kbps     01:01:42.665    104 489 bytes   350 139 bytes   01:02:03.252
14              1:05:02.531     0:06:39.565     25 534 kbps     31 164 kbps     01:11:04.326    29 066 kbps     01:11:04.326    28 619 kbps     01:09:26.061    106 500 bytes   428 200 bytes   01:10:13.475
15              1:11:42.097     0:04:07.113     24 861 kbps     30 651 kbps     01:12:40.356    28 186 kbps     01:12:40.356    27 646 kbps     01:14:05.774    103 693 bytes   375 498 bytes   01:13:18.293
16              1:15:49.211     0:09:39.145     24 167 kbps     30 221 kbps     01:16:56.511    27 495 kbps     01:23:13.154    26 821 kbps     01:16:55.310    100 797 bytes   372 819 bytes   01:21:06.127
17              1:25:28.356     0:05:19.719     25 172 kbps     30 335 kbps     01:29:40.808    28 484 kbps     01:30:06.601    27 991 kbps     01:30:06.601    104 989 bytes   353 597 bytes   01:30:10.671
18              1:30:48.075     0:02:14.100     24 878 kbps     30 031 kbps     01:31:09.564    28 380 kbps     01:31:09.430    28 107 kbps     01:31:09.630    103 761 bytes   382 125 bytes   01:31:14.435
19              1:33:02.176     0:07:09.996     25 711 kbps     33 132 kbps     01:38:10.751    29 756 kbps     01:38:10.751    29 315 kbps     01:37:48.996    107 237 bytes   435 107 bytes   01:38:10.851
20              1:40:12.172     0:03:23.436     24 344 kbps     29 505 kbps     01:40:13.173    27 326 kbps     01:40:12.339    26 164 kbps     01:42:28.842    101 533 bytes   289 161 bytes   01:42:34.448
21              1:43:35.609     0:05:32.665     26 216 kbps     33 564 kbps     01:47:16.863    30 536 kbps     01:48:07.948    30 005 kbps     01:48:08.114    109 341 bytes   420 097 bytes   01:47:17.431
22              1:49:08.275     0:06:15.074     24 802 kbps     30 584 kbps     01:49:14.080    28 386 kbps     01:49:13.813    27 106 kbps     01:54:55.355    103 447 bytes   411 884 bytes   01:49:15.849
23              1:55:23.349     0:05:20.853     25 400 kbps     29 952 kbps     01:56:54.807    27 385 kbps     01:58:02.508    27 072 kbps     01:58:02.575    105 938 bytes   347 278 bytes   01:58:02.708
24              2:00:44.203     0:03:32.712     24 295 kbps     28 271 kbps     02:00:44.237    26 585 kbps     02:00:44.237    26 329 kbps     02:00:44.237    101 332 bytes   338 335 bytes   02:02:18.297
25              2:04:16.916     0:03:51.731     24 558 kbps     30 206 kbps     02:06:45.798    27 682 kbps     02:06:45.464    27 409 kbps     02:06:01.654    102 427 bytes   327 863 bytes   02:05:06.899
26              2:08:08.647     0:06:51.544     25 092 kbps     32 139 kbps     02:10:49.875    30 042 kbps     02:10:49.875    28 681 kbps     02:09:40.773    104 654 bytes   386 629 bytes   02:09:42.541
27              2:15:00.192     0:06:29.789     23 318 kbps     31 478 kbps     02:19:24.556    29 239 kbps     02:19:20.652    28 977 kbps     02:19:20.118    97 264 bytes    417 837 bytes   02:20:49.407
[br]
STREAM DIAGNOSTICS:
[br]
File            PID             Type            Codec           Language                Seconds                 Bitrate                 Bytes           Packets
----            ---             ----            -----           --------                --------------          --------------          -------------   -----
00001.M2TS      4113 (0x1011)   0x02            MPEG-2                                  8489,848                24 982                  26 512 088 433  144 235 533
00001.M2TS      4352 (0x1100)   0x80            LPCM            fra (French)            8489,848                1 537                   1 631 403 946   10 153 996
00001.M2TS      4353 (0x1101)   0x86            DTS-HD MA       fra (French)            8489,848                2 297                   2 437 833 640   14 568 404
00001.M2TS      4608 (0x1200)   0x90            PGS             eng (English)           8489,848                22                      23 541 280      137 056
00001.M2TS      4609 (0x1201)   0x90            PGS             fra (French)            8489,848                23                      23 904 809      139 049
00001.M2TS      4610 (0x1202)   0x90            PGS             spa (Spanish)           8489,848                23                      24 297 915      141 205
<---- END FORUMS PASTE ---->
QUICK SUMMARY:
Disc Title: Альфано - Сирано де Бержерак (de la Comunitat Valenciana) (2007) (Blu-ray 1080i, MPEG-2, DTS-HD 5.1)
Disc Size: 32 991 634 818 bytes
Protection: AACS
BD-Java: Yes
Playlist: 01001.MPLS
Size: 32 592 531 456 bytes
Length: 2:21:29.981
Total Bitrate: 30,71 Mbps
Video: MPEG-2 Video / 24982 kbps / 1080i / 29,970 fps / 16:9
Audio: French / LPCM Audio / 2.0 / 48 kHz / 1536 kbps / 16-bit
Audio: French / DTS-HD Master Audio / 5.1 / 48 kHz / 2297 kbps / 16-bit (DTS Core: 5.1 / 48 kHz / 1509 kbps / 16-bit)
Subtitle: English / 22,183 kbps
Subtitle: French / 22,525 kbps
Subtitle: Spanish / 22,896 kbps
********************
PLAYLIST: 00000.MPLS
********************
<--- BEGIN FORUMS PASTE --->
Total   Video
Title                                                           Codec   Length  Movie Size      Disc Size       Bitrate Bitrate Main Audio Track                          Secondary Audio Track
-----                                                           ------  ------- --------------  --------------  ------- ------- ------------------                        ---------------------
00000.MPLS                                                      MPEG-2  0:01:30 352 266 240     32 991 634 818  31,29   29,90
DISC INFO:
[br]
Disc Title:     Альфано - Сирано де Бержерак (de la Comunitat Valenciana) (2007) (Blu-ray 1080i, MPEG-2, DTS-HD 5.1)
Disc Size:      32 991 634 818 bytes
Protection:     AACS
BD-Java:        Yes
BDInfo:         0.5.8
[br]
PLAYLIST REPORT:
[br]
Name:                   00000.MPLS
Length:                 0:01:30.056 (h:m:s.ms)
Size:                   352 266 240 bytes
Total Bitrate:          31,29 Mbps
[br]
VIDEO:
[br]
Codec                   Bitrate             Description
-----                   -------             -----------
MPEG-2 Video            29898 kbps          1080i / 29,970 fps / 16:9
[br]
FILES:
[br]
Name            Time In         Length          Size            Total Bitrate
----            -------         ------          ----            -------------
00000.M2TS      0:00:00.000     0:01:30.056     352 266 240     31 293
[br]
CHAPTERS:
[br]
Number          Time In         Length          Avg Video Rate  Max 1-Sec Rate  Max 1-Sec Time  Max 5-Sec Rate  Max 5-Sec Time  Max 10Sec Rate  Max 10Sec Time  Avg Frame Size  Max Frame Size  Max Frame Time
------          -------         ------          --------------  --------------  --------------  --------------  --------------  --------------  --------------  --------------  --------------  --------------
1               0:00:00.000     0:00:01.001     29 247 kbps     28 863 kbps     00:00:00.000    0 kbps          00:00:00.000    0 kbps          00:00:00.000    118 051 bytes   297 809 bytes   00:00:00.867
2               0:00:01.001     0:00:01.000     28 244 kbps     28 244 kbps     00:00:01.001    0 kbps          00:00:00.000    0 kbps          00:00:00.000    117 802 bytes   468 321 bytes   00:00:01.735
3               0:00:02.001     0:01:28.054     29 924 kbps     35 048 kbps     00:00:45.412    32 306 kbps     00:00:45.311    31 935 kbps     00:00:45.512    124 855 bytes   637 907 bytes   00:00:52.485
[br]
STREAM DIAGNOSTICS:
[br]
File            PID             Type            Codec           Language                Seconds                 Bitrate                 Bytes           Packets
----            ---             ----            -----           --------                --------------          --------------          -------------   -----
00000.M2TS      4113 (0x1011)   0x02            MPEG-2                                  89,990                  29 920                  336 560 394     1 830 713
<---- END FORUMS PASTE ---->
QUICK SUMMARY:
Disc Title: Альфано - Сирано де Бержерак (de la Comunitat Valenciana) (2007) (Blu-ray 1080i, MPEG-2, DTS-HD 5.1)
Disc Size: 32 991 634 818 bytes
Protection: AACS
BD-Java: Yes
Playlist: 00000.MPLS
Size: 352 266 240 bytes
Length: 0:01:30.056
Total Bitrate: 31,29 Mbps
Video: MPEG-2 Video / 29898 kbps / 1080i / 29,970 fps / 16:9
********************
PLAYLIST: 01000.MPLS
********************
<--- BEGIN FORUMS PASTE --->
Total   Video
Title                                                           Codec   Length  Movie Size      Disc Size       Bitrate Bitrate Main Audio Track                          Secondary Audio Track
-----                                                           ------  ------- --------------  --------------  ------- ------- ------------------                        ---------------------
01000.MPLS                                                      MPEG-2  0:01:30 352 266 240     32 991 634 818  31,29   29,90
DISC INFO:
[br]
Disc Title:     Альфано - Сирано де Бержерак (de la Comunitat Valenciana) (2007) (Blu-ray 1080i, MPEG-2, DTS-HD 5.1)
Disc Size:      32 991 634 818 bytes
Protection:     AACS
BD-Java:        Yes
BDInfo:         0.5.8
[br]
PLAYLIST REPORT:
[br]
Name:                   01000.MPLS
Length:                 0:01:30.056 (h:m:s.ms)
Size:                   352 266 240 bytes
Total Bitrate:          31,29 Mbps
[br]
VIDEO:
[br]
Codec                   Bitrate             Description
-----                   -------             -----------
MPEG-2 Video            29898 kbps          1080i / 29,970 fps / 16:9
[br]
FILES:
[br]
Name            Time In         Length          Size            Total Bitrate
----            -------         ------          ----            -------------
00000.M2TS      0:00:00.000     0:01:30.056     352 266 240     31 293
[br]
CHAPTERS:
[br]
Number          Time In         Length          Avg Video Rate  Max 1-Sec Rate  Max 1-Sec Time  Max 5-Sec Rate  Max 5-Sec Time  Max 10Sec Rate  Max 10Sec Time  Avg Frame Size  Max Frame Size  Max Frame Time
------          -------         ------          --------------  --------------  --------------  --------------  --------------  --------------  --------------  --------------  --------------  --------------
1               0:00:00.000     0:00:01.001     29 247 kbps     28 863 kbps     00:00:00.000    0 kbps          00:00:00.000    0 kbps          00:00:00.000    118 051 bytes   297 809 bytes   00:00:00.867
2               0:00:01.001     0:00:01.000     28 244 kbps     28 244 kbps     00:00:01.001    0 kbps          00:00:00.000    0 kbps          00:00:00.000    117 802 bytes   468 321 bytes   00:00:01.735
3               0:00:02.001     0:01:28.054     29 924 kbps     35 048 kbps     00:00:45.412    32 306 kbps     00:00:45.311    31 935 kbps     00:00:45.512    124 855 bytes   637 907 bytes   00:00:52.485
[br]
STREAM DIAGNOSTICS:
[br]
File            PID             Type            Codec           Language                Seconds                 Bitrate                 Bytes           Packets
----            ---             ----            -----           --------                --------------          --------------          -------------   -----
00000.M2TS      4113 (0x1011)   0x02            MPEG-2                                  89,990                  29 920                  336 560 394     1 830 713
<---- END FORUMS PASTE ---->
QUICK SUMMARY:
Disc Title: Альфано - Сирано де Бержерак (de la Comunitat Valenciana) (2007) (Blu-ray 1080i, MPEG-2, DTS-HD 5.1)
Disc Size: 32 991 634 818 bytes
Protection: AACS
BD-Java: Yes
Playlist: 01000.MPLS
Size: 352 266 240 bytes
Length: 0:01:30.056
Total Bitrate: 31,29 Mbps
Video: MPEG-2 Video / 29898 kbps / 1080i / 29,970 fps / 16:9
Семпл

Скриншоты





Показать сообщения:    

Текущее время: 05-Дек 01:26

Часовой пояс: UTC + 3


Вы не можете начинать темы
Вы не можете отвечать на сообщения
Вы не можете редактировать свои сообщения
Вы не можете удалять свои сообщения
Вы не можете голосовать в опросах
Вы не можете прикреплять файлы к сообщениям
Вы не можете скачивать файлы