Гектор Берлиоз - Бенвенуто Челлини (Зальцбургский фестиваль; Филипп Штёльцль, Валерий Гергиев) / Louis-Hector Berlioz - Benvenuto Cellini (Salzburg Festival; Philipp Stolz, Valery Gergiev; Fritz, Kovaļevska, Naouri) [2007, Opera, Blu-ray 1080i]


 

[Цитировать]

Берлиоз - Бенвенуто Челлини / Berlioz - Benvenuto Cellini
Год выпуска: 2007
Лейбл: Naxos
Страна-производитель: США
Жанр: Opera
Продолжительность: 02:43:42
Язык: Английский
Режиссер: Philipp Stölz (Филипп Штёльцль)
Дирижер: Valery Gergiev (Валерий Гергиев)
Исполнители:
Burkhard Fritz (Буркхард Фриц) - Benvenuto Cellini
Maija Kovaļevska (Майя Ковалевская) - Teresa
Laurent Naouri (Лоран Наури) - Fieramosca
Brindley Sherratt (Бриндли Шерратт) - Giacomo Balducci
Mikhail Petrenko (Михаил Петренко) - Pope Clemens VII
Kate Aldrich (Кейт Элдрич) - Ascanio
Xavier Mas (Ксавьер Мас) - Francesco
Roberto Tagliavini (Роберто Тальявини) - Bernardino
Adam Plachetka (Адам Плахетка) - Pompeo
Sung-Keun Park (Санг Койн Парк) - Innkeeper
Gabrio Gabrieli, Francesco Pedone, Marie Seeger, Tobias Wozniak - танцоры
Silke Adolph, Andy Arndt, Thomas Durrfeld - акробаты
Konzertvereinigung Wiener Staatsopernchor (Хор Венской государственной оперы), Orchestra de la Comunitat Valenciana (оркестр автономного округа Валенсия)
Описание: «Бенвенуто Челлини» (фр. Benvenuto Cellini), opus 23 — опера в трех действиях французского композитора Гектора Берлиоза. Либретто Л. де Вайи и О.Барбье. Премьера состоялась 10 сентября 1838 года в Париже. Премьера второй редакции — 17 ноября 1852 года в Веймаре.
В 1834 году Берлиоз, де Вайи и Барбье предложили Парижской Опера-комик либретто в стиле комической оперы с разговорными диалогами. Но дирекция отвергла ее. Тогда авторы переписали его в более приемлемом для тогдашней публики виде, заменив диалоги речитативами. Первоначально опера шла в двух действиях. Тем не менее новаторство оперы по сравнению с господствовавшим на сцене большим стилем привело к провалу премьеры в сентябре 1838 года. Опера надолго была забыта. В 1851 году Ференц Лист, согласовав изменения с Берлиозом, поставил оперу в новой редакции, теперь уже в трех действиях на сцене оперного театра в Веймаре. Таким образом, опера существует в трех редакциях: 1834, 1838 и 1851 годов. Окончательно на сцене утвердилась редакция 1851 года, хотя в последних постановках, она идет в двух частях (без перерыва между первым и вторым действием).

Оригинальное описание

A mix of futurism à la 'Metropolis,' fantasy à la 'Batman' and quotes from Piranesi's 'Carceri,' juxtaposed in the form of photo montages, enhanced with ... robots, a helicopter, a shark and the winged vehicle of a pop star Pope," effuses critic Marianne Zelger-Vogt (Neue Zürcher Zeitung). The object of her rapture is not a Broadway musical but a French opera written in the 1830s, Hector Berlioz's "Benvenuto Cellini. The absence of the work in the operatic repertoire is certainly due in part to its musical excesses: the work is so complex, richly detailed and prolifically imaginative that Berlioz's contemporaries considered it unplayable and unsingable.
This is resoundingly proven false in the 2007 Salzburg Festival production of director Philipp Stölzl, conductor Valery Gergiev ("the wild man of music") and a high-caliber cast accompanied by the Vienna Philharmonic and its chorus. Stölzl, above all, has poured his experience as director of music videos (for Madonna, Mick Jagger and others), commercials and films into this project, termed "science fiction for Grand Opera".
Recorded live at the Großes Festspielhaus, Salzburg, Austria, 5, 10 & 15 August 2007, as part of the 2007 Salzburg Festival.
Бонус: Фрагменты оперы без звука (00:01:30)
Об опере
Качество видео: Blu-ray
Формат/Контейнер: BDMV
Видео кодек: MPEG2
Аудио кодек: LPCM, DTS
Видео поток: 1920x1080i, MPEG-2 Video, 29.970 fps, 16:9, 24967 kbps
Аудио поток 1: LPCM, 2 ch, 48 kHz, 16-bit, 1536 kbps
Аудио поток 2: DTS-HD MA, 5.1 ch, 48 kHz, 16-bit, 2141 kbps (DTS Core: 5.1 / 48 kHz / 1509 kbps / 16-bit)
Субтитры: Английские, немецкие, французские, испанские

BD-Info

Disc Title: Берлиоз - Бенвенуто Челлини (Salzburg Festival) (2007) (Blu-ray 1080i, MPEG-2, DTS-HD 5.1)
Disc Size: 37 893 200 870 bytes
Protection: AACS
BD-Java: Yes
BDInfo: 0.5.8
Notes:
BDINFO HOME:
Cinema Squid
http://www.cinemasquid.com/blu-ray/tools/bdinfo
INCLUDES FORUMS REPORT FOR:
AVS Forum Blu-ray Audio and Video Specifications Thread
http://www.avsforum.com/avs-vb/showthread.php?t=1155731
********************
PLAYLIST: 00001.MPLS
********************
<--- BEGIN FORUMS PASTE --->
Total   Video
Title                                                           Codec   Length  Movie Size      Disc Size       Bitrate Bitrate Main Audio Track                          Secondary Audio Track
-----                                                           ------  ------- --------------  --------------  ------- ------- ------------------                        ---------------------
00001.MPLS                                                      MPEG-2  2:43:42 37 527 926 784  37 893 200 870  30,57   24,97   LPCM 2.0 1536Kbps (48kHz/16-bit)          DTS-HD Master 5.1 2141Kbps (48kHz/16-bit)
DISC INFO:
[br]
Disc Title:     Берлиоз - Бенвенуто Челлини (Salzburg Festival) (2007) (Blu-ray 1080i, MPEG-2, DTS-HD 5.1)
Disc Size:      37 893 200 870 bytes
Protection:     AACS
BD-Java:        Yes
BDInfo:         0.5.8
[br]
PLAYLIST REPORT:
[br]
Name:                   00001.MPLS
Length:                 2:43:42.045 (h:m:s.ms)
Size:                   37 527 926 784 bytes
Total Bitrate:          30,57 Mbps
[br]
VIDEO:
[br]
Codec                   Bitrate             Description
-----                   -------             -----------
MPEG-2 Video            24967 kbps          1080i / 29,970 fps / 16:9
[br]
AUDIO:
[br]
Codec                           Language        Bitrate         Description
-----                           --------        -------         -----------
LPCM Audio                      Undetermined    1536 kbps       2.0 / 48 kHz / 1536 kbps / 16-bit
DTS-HD Master Audio             Undetermined    2141 kbps       5.1 / 48 kHz / 2141 kbps / 16-bit (DTS Core: 5.1 / 48 kHz / 1509 kbps / 16-bit)
[br]
SUBTITLES:
[br]
Codec                           Language        Bitrate         Description
-----                           --------        -------         -----------
Presentation Graphics           English         20,308 kbps
Presentation Graphics           French          22,218 kbps
Presentation Graphics           German          22,213 kbps
Presentation Graphics           Spanish         23,057 kbps
[br]
FILES:
[br]
Name            Time In         Length          Size            Total Bitrate
----            -------         ------          ----            -------------
00001.M2TS      0:00:00.000     2:43:42.045     37 527 926 784  30 566
[br]
CHAPTERS:
[br]
Number          Time In         Length          Avg Video Rate  Max 1-Sec Rate  Max 1-Sec Time  Max 5-Sec Rate  Max 5-Sec Time  Max 10Sec Rate  Max 10Sec Time  Avg Frame Size  Max Frame Size  Max Frame Time
------          -------         ------          --------------  --------------  --------------  --------------  --------------  --------------  --------------  --------------  --------------  --------------
1               0:00:00.000     0:01:39.132     25 485 kbps     31 876 kbps     00:00:57.123    28 820 kbps     00:00:57.123    28 354 kbps     00:00:52.452    106 258 bytes   527 815 bytes   00:00:57.223
2               0:01:39.132     0:09:19.425     23 858 kbps     31 896 kbps     00:04:01.941    28 940 kbps     00:02:32.252    27 923 kbps     00:03:53.800    99 509 bytes    517 156 bytes   00:04:02.909
3               0:10:58.557     0:01:43.636     24 949 kbps     30 695 kbps     00:11:28.888    28 528 kbps     00:11:06.332    28 042 kbps     00:11:06.332    104 056 bytes   476 772 bytes   00:11:06.532
4               0:12:42.194     0:04:37.777     24 684 kbps     30 886 kbps     00:13:42.555    27 962 kbps     00:13:39.084    27 550 kbps     00:15:53.519    102 953 bytes   457 297 bytes   00:15:56.155
5               0:17:19.972     0:09:43.783     24 165 kbps     30 550 kbps     00:21:16.541    27 827 kbps     00:21:16.541    27 222 kbps     00:21:13.605    100 786 bytes   461 602 bytes   00:21:16.608
6               0:27:03.755     0:06:21.981     24 272 kbps     29 339 kbps     00:30:07.806    27 323 kbps     00:28:07.318    26 423 kbps     00:28:02.747    101 236 bytes   415 911 bytes   00:27:18.970
7               0:33:25.737     0:05:43.142     23 892 kbps     28 802 kbps     00:34:31.903    26 822 kbps     00:35:26.124    26 142 kbps     00:35:24.388    99 651 bytes    364 311 bytes   00:33:26.571
8               0:39:08.879     0:03:14.794     24 454 kbps     29 000 kbps     00:39:21.058    26 732 kbps     00:40:50.748    26 375 kbps     00:40:32.897    101 993 bytes   367 068 bytes   00:39:19.357
9               0:42:23.674     0:02:06.326     27 617 kbps     31 559 kbps     00:43:50.194    29 286 kbps     00:43:46.624    28 913 kbps     00:43:46.624    115 187 bytes   425 894 bytes   00:44:24.928
10              0:44:30.000     0:05:30.930     27 371 kbps     31 442 kbps     00:47:49.666    29 305 kbps     00:44:40.110    28 968 kbps     00:44:41.011    114 160 bytes   470 965 bytes   00:47:42.526
11              0:50:00.931     0:03:31.778     26 148 kbps     31 162 kbps     00:52:09.759    28 760 kbps     00:52:33.850    28 496 kbps     00:52:36.686    109 060 bytes   455 215 bytes   00:51:54.177
12              0:53:32.709     0:06:17.910     26 714 kbps     31 868 kbps     00:57:00.083    29 275 kbps     00:58:58.167    29 011 kbps     00:56:57.414    111 418 bytes   498 503 bytes   00:56:50.373
13              0:59:50.620     0:02:36.389     22 871 kbps     29 055 kbps     01:01:09.899    25 382 kbps     01:01:43.900    24 676 kbps     01:01:44.333    95 391 bytes    328 908 bytes   01:01:46.269
14              1:02:27.009     0:03:33.580     25 075 kbps     31 043 kbps     01:05:28.658    28 042 kbps     01:05:24.954    27 543 kbps     01:05:19.982    104 584 bytes   383 102 bytes   01:05:21.050
15              1:06:00.589     0:07:08.394     27 413 kbps     32 095 kbps     01:06:51.841    29 339 kbps     01:06:03.092    28 974 kbps     01:10:05.601    114 333 bytes   494 572 bytes   01:10:00.663
16              1:13:08.984     0:02:05.158     27 530 kbps     31 757 kbps     01:14:11.980    29 296 kbps     01:14:07.943    28 718 kbps     01:14:02.971    114 825 bytes   456 683 bytes   01:15:14.142
17              1:15:14.142     0:05:14.080     27 348 kbps     32 194 kbps     01:18:45.320    29 372 kbps     01:20:18.580    28 844 kbps     01:20:18.146    114 064 bytes   485 679 bytes   01:17:43.325
18              1:20:28.223     0:03:11.291     27 402 kbps     31 959 kbps     01:20:38.800    29 308 kbps     01:20:34.796    29 010 kbps     01:21:56.444    114 290 bytes   433 808 bytes   01:20:45.774
19              1:23:39.514     0:04:13.319     25 592 kbps     30 933 kbps     01:24:37.906    28 215 kbps     01:23:51.493    27 959 kbps     01:23:47.088    106 742 bytes   428 344 bytes   01:24:24.392
20              1:27:52.834     0:07:15.201     24 435 kbps     31 263 kbps     01:27:54.168    29 113 kbps     01:27:53.635    28 829 kbps     01:27:54.269    101 914 bytes   522 452 bytes   01:27:56.904
21              1:35:08.035     0:07:26.746     23 634 kbps     30 903 kbps     01:41:16.236    27 891 kbps     01:41:16.236    27 050 kbps     01:41:15.803    98 575 bytes    460 750 bytes   01:35:21.015
22              1:42:34.781     0:01:34.561     24 283 kbps     28 851 kbps     01:43:52.092    26 548 kbps     01:42:36.517    25 792 kbps     01:42:36.517    101 279 bytes   363 480 bytes   01:44:01.034
23              1:44:09.343     0:06:41.634     25 057 kbps     30 891 kbps     01:48:05.645    28 607 kbps     01:49:00.166    28 063 kbps     01:48:55.095    104 509 bytes   482 558 bytes   01:48:24.931
24              1:50:50.977     0:04:55.361     24 073 kbps     29 956 kbps     01:52:03.383    27 618 kbps     01:51:41.761    26 498 kbps     01:52:03.383    100 403 bytes   455 883 bytes   01:52:03.450
25              1:55:46.339     0:05:37.970     23 197 kbps     31 523 kbps     01:56:24.477    28 813 kbps     01:56:24.377    28 097 kbps     01:56:21.341    96 752 bytes    458 117 bytes   01:56:25.044
26              2:01:24.310     0:08:05.318     23 876 kbps     30 033 kbps     02:08:46.351    27 858 kbps     02:08:46.351    27 756 kbps     02:08:43.082    99 584 bytes    463 608 bytes   02:08:40.512
27              2:09:29.628     0:02:26.913     23 920 kbps     28 745 kbps     02:11:07.693    27 015 kbps     02:11:07.693    26 308 kbps     02:11:07.459    99 766 bytes    387 978 bytes   02:11:07.726
28              2:11:56.541     0:05:06.606     24 089 kbps     28 811 kbps     02:15:23.982    26 801 kbps     02:12:25.437    26 327 kbps     02:12:24.236    100 469 bytes   356 745 bytes   02:12:25.470
29              2:17:03.148     0:03:03.816     25 112 kbps     29 785 kbps     02:19:44.943    27 761 kbps     02:19:49.981    27 339 kbps     02:19:44.976    104 736 bytes   415 540 bytes   02:19:45.009
30              2:20:06.965     0:05:17.483     24 963 kbps     30 896 kbps     02:22:56.067    28 424 kbps     02:21:58.243    27 514 kbps     02:23:16.287    104 117 bytes   455 763 bytes   02:22:56.167
31              2:25:24.449     0:01:56.983     23 538 kbps     28 096 kbps     02:26:16.000    26 619 kbps     02:26:13.030    25 843 kbps     02:26:13.064    98 173 bytes    339 985 bytes   02:27:17.128
32              2:27:21.432     0:06:26.385     25 880 kbps     31 297 kbps     02:28:20.524    28 814 kbps     02:33:00.471    28 444 kbps     02:32:56.333    107 941 bytes   446 490 bytes   02:30:03.027
33              2:33:47.818     0:03:17.430     24 830 kbps     31 628 kbps     02:36:42.025    28 936 kbps     02:36:39.723    27 948 kbps     02:36:34.718    103 561 bytes   448 882 bytes   02:35:09.033
34              2:37:05.249     0:06:36.796     24 607 kbps     31 506 kbps     02:37:30.974    29 216 kbps     02:37:15.192    28 715 kbps     02:42:32.342    102 641 bytes   493 833 bytes   02:37:11.021
[br]
STREAM DIAGNOSTICS:
[br]
File            PID             Type            Codec           Language                Seconds                 Bitrate                 Bytes           Packets
----            ---             ----            -----           --------                --------------          --------------          -------------   -----
00001.M2TS      4113 (0x1011)   0x02            MPEG-2                                  9821,979                24 967                  30 652 796 960  166 763 283
00001.M2TS      4352 (0x1100)   0x80            LPCM            und (Undetermined)      9821,979                1 542                   1 893 686 532   11 786 451
00001.M2TS      4353 (0x1101)   0x86            DTS-HD MA       und (Undetermined)      9821,979                2 141                   2 629 210 140   15 849 145
00001.M2TS      4608 (0x1200)   0x90            PGS             eng (English)           9821,979                20                      24 932 821      144 640
00001.M2TS      4609 (0x1201)   0x90            PGS             fra (French)            9821,979                22                      27 278 046      157 390
00001.M2TS      4610 (0x1202)   0x90            PGS             deu (German)            9821,979                22                      27 271 750      157 357
00001.M2TS      4611 (0x1203)   0x90            PGS             spa (Spanish)           9821,979                23                      28 308 639      162 989
<---- END FORUMS PASTE ---->
QUICK SUMMARY:
Disc Title: Берлиоз - Бенвенуто Челлини (Salzburg Festival) (2007) (Blu-ray 1080i, MPEG-2, DTS-HD 5.1)
Disc Size: 37 893 200 870 bytes
Protection: AACS
BD-Java: Yes
Playlist: 00001.MPLS
Size: 37 527 926 784 bytes
Length: 2:43:42.045
Total Bitrate: 30,57 Mbps
Video: MPEG-2 Video / 24967 kbps / 1080i / 29,970 fps / 16:9
Audio: Undetermined / LPCM Audio / 2.0 / 48 kHz / 1536 kbps / 16-bit
Audio: Undetermined / DTS-HD Master Audio / 5.1 / 48 kHz / 2141 kbps / 16-bit (DTS Core: 5.1 / 48 kHz / 1509 kbps / 16-bit)
Subtitle: English / 20,308 kbps
Subtitle: French / 22,218 kbps
Subtitle: German / 22,213 kbps
Subtitle: Spanish / 23,057 kbps
********************
PLAYLIST: 01001.MPLS
********************
<--- BEGIN FORUMS PASTE --->
Total   Video
Title                                                           Codec   Length  Movie Size      Disc Size       Bitrate Bitrate Main Audio Track                          Secondary Audio Track
-----                                                           ------  ------- --------------  --------------  ------- ------- ------------------                        ---------------------
01001.MPLS                                                      MPEG-2  2:43:42 37 527 926 784  37 893 200 870  30,57   24,97   LPCM 2.0 1536Kbps (48kHz/16-bit)          DTS-HD Master 5.1 2141Kbps (48kHz/16-bit)
DISC INFO:
[br]
Disc Title:     Берлиоз - Бенвенуто Челлини (Salzburg Festival) (2007) (Blu-ray 1080i, MPEG-2, DTS-HD 5.1)
Disc Size:      37 893 200 870 bytes
Protection:     AACS
BD-Java:        Yes
BDInfo:         0.5.8
[br]
PLAYLIST REPORT:
[br]
Name:                   01001.MPLS
Length:                 2:43:42.045 (h:m:s.ms)
Size:                   37 527 926 784 bytes
Total Bitrate:          30,57 Mbps
[br]
VIDEO:
[br]
Codec                   Bitrate             Description
-----                   -------             -----------
MPEG-2 Video            24967 kbps          1080i / 29,970 fps / 16:9
[br]
AUDIO:
[br]
Codec                           Language        Bitrate         Description
-----                           --------        -------         -----------
LPCM Audio                      Undetermined    1536 kbps       2.0 / 48 kHz / 1536 kbps / 16-bit
DTS-HD Master Audio             Undetermined    2141 kbps       5.1 / 48 kHz / 2141 kbps / 16-bit (DTS Core: 5.1 / 48 kHz / 1509 kbps / 16-bit)
[br]
SUBTITLES:
[br]
Codec                           Language        Bitrate         Description
-----                           --------        -------         -----------
Presentation Graphics           English         20,308 kbps
Presentation Graphics           French          22,218 kbps
Presentation Graphics           German          22,213 kbps
Presentation Graphics           Spanish         23,057 kbps
[br]
FILES:
[br]
Name            Time In         Length          Size            Total Bitrate
----            -------         ------          ----            -------------
00001.M2TS      0:00:00.000     2:43:42.045     37 527 926 784  30 566
[br]
CHAPTERS:
[br]
Number          Time In         Length          Avg Video Rate  Max 1-Sec Rate  Max 1-Sec Time  Max 5-Sec Rate  Max 5-Sec Time  Max 10Sec Rate  Max 10Sec Time  Avg Frame Size  Max Frame Size  Max Frame Time
------          -------         ------          --------------  --------------  --------------  --------------  --------------  --------------  --------------  --------------  --------------  --------------
1               0:00:00.000     0:01:39.132     25 485 kbps     31 876 kbps     00:00:57.123    28 820 kbps     00:00:57.123    28 354 kbps     00:00:52.452    106 258 bytes   527 815 bytes   00:00:57.223
2               0:01:39.132     0:09:19.425     23 858 kbps     31 896 kbps     00:04:01.941    28 940 kbps     00:02:32.252    27 923 kbps     00:03:53.800    99 509 bytes    517 156 bytes   00:04:02.909
3               0:10:58.557     0:01:43.636     24 949 kbps     30 695 kbps     00:11:28.888    28 528 kbps     00:11:06.332    28 042 kbps     00:11:06.332    104 056 bytes   476 772 bytes   00:11:06.532
4               0:12:42.194     0:04:37.777     24 684 kbps     30 886 kbps     00:13:42.555    27 962 kbps     00:13:39.084    27 550 kbps     00:15:53.519    102 953 bytes   457 297 bytes   00:15:56.155
5               0:17:19.972     0:09:43.783     24 165 kbps     30 550 kbps     00:21:16.541    27 827 kbps     00:21:16.541    27 222 kbps     00:21:13.605    100 786 bytes   461 602 bytes   00:21:16.608
6               0:27:03.755     0:06:21.981     24 272 kbps     29 339 kbps     00:30:07.806    27 323 kbps     00:28:07.318    26 423 kbps     00:28:02.747    101 236 bytes   415 911 bytes   00:27:18.970
7               0:33:25.737     0:05:43.142     23 892 kbps     28 802 kbps     00:34:31.903    26 822 kbps     00:35:26.124    26 142 kbps     00:35:24.388    99 651 bytes    364 311 bytes   00:33:26.571
8               0:39:08.879     0:03:14.794     24 454 kbps     29 000 kbps     00:39:21.058    26 732 kbps     00:40:50.748    26 375 kbps     00:40:32.897    101 993 bytes   367 068 bytes   00:39:19.357
9               0:42:23.674     0:02:06.326     27 617 kbps     31 559 kbps     00:43:50.194    29 286 kbps     00:43:46.624    28 913 kbps     00:43:46.624    115 187 bytes   425 894 bytes   00:44:24.928
10              0:44:30.000     0:05:30.930     27 371 kbps     31 442 kbps     00:47:49.666    29 305 kbps     00:44:40.110    28 968 kbps     00:44:41.011    114 160 bytes   470 965 bytes   00:47:42.526
11              0:50:00.931     0:03:31.778     26 148 kbps     31 162 kbps     00:52:09.759    28 760 kbps     00:52:33.850    28 496 kbps     00:52:36.686    109 060 bytes   455 215 bytes   00:51:54.177
12              0:53:32.709     0:06:17.910     26 714 kbps     31 868 kbps     00:57:00.083    29 275 kbps     00:58:58.167    29 011 kbps     00:56:57.414    111 418 bytes   498 503 bytes   00:56:50.373
13              0:59:50.620     0:02:36.389     22 871 kbps     29 055 kbps     01:01:09.899    25 382 kbps     01:01:43.900    24 676 kbps     01:01:44.333    95 391 bytes    328 908 bytes   01:01:46.269
14              1:02:27.009     0:03:33.580     25 075 kbps     31 043 kbps     01:05:28.658    28 042 kbps     01:05:24.954    27 543 kbps     01:05:19.982    104 584 bytes   383 102 bytes   01:05:21.050
15              1:06:00.589     0:07:08.394     27 413 kbps     32 095 kbps     01:06:51.841    29 339 kbps     01:06:03.092    28 974 kbps     01:10:05.601    114 333 bytes   494 572 bytes   01:10:00.663
16              1:13:08.984     0:02:05.158     27 530 kbps     31 757 kbps     01:14:11.980    29 296 kbps     01:14:07.943    28 718 kbps     01:14:02.971    114 825 bytes   456 683 bytes   01:15:14.142
17              1:15:14.142     0:05:14.080     27 348 kbps     32 194 kbps     01:18:45.320    29 372 kbps     01:20:18.580    28 844 kbps     01:20:18.146    114 064 bytes   485 679 bytes   01:17:43.325
18              1:20:28.223     0:03:11.291     27 402 kbps     31 959 kbps     01:20:38.800    29 308 kbps     01:20:34.796    29 010 kbps     01:21:56.444    114 290 bytes   433 808 bytes   01:20:45.774
19              1:23:39.514     0:04:13.319     25 592 kbps     30 933 kbps     01:24:37.906    28 215 kbps     01:23:51.493    27 959 kbps     01:23:47.088    106 742 bytes   428 344 bytes   01:24:24.392
20              1:27:52.834     0:07:15.201     24 435 kbps     31 263 kbps     01:27:54.168    29 113 kbps     01:27:53.635    28 829 kbps     01:27:54.269    101 914 bytes   522 452 bytes   01:27:56.904
21              1:35:08.035     0:07:26.746     23 634 kbps     30 903 kbps     01:41:16.236    27 891 kbps     01:41:16.236    27 050 kbps     01:41:15.803    98 575 bytes    460 750 bytes   01:35:21.015
22              1:42:34.781     0:01:34.561     24 283 kbps     28 851 kbps     01:43:52.092    26 548 kbps     01:42:36.517    25 792 kbps     01:42:36.517    101 279 bytes   363 480 bytes   01:44:01.034
23              1:44:09.343     0:06:41.634     25 057 kbps     30 891 kbps     01:48:05.645    28 607 kbps     01:49:00.166    28 063 kbps     01:48:55.095    104 509 bytes   482 558 bytes   01:48:24.931
24              1:50:50.977     0:04:55.361     24 073 kbps     29 956 kbps     01:52:03.383    27 618 kbps     01:51:41.761    26 498 kbps     01:52:03.383    100 403 bytes   455 883 bytes   01:52:03.450
25              1:55:46.339     0:05:37.970     23 197 kbps     31 523 kbps     01:56:24.477    28 813 kbps     01:56:24.377    28 097 kbps     01:56:21.341    96 752 bytes    458 117 bytes   01:56:25.044
26              2:01:24.310     0:08:05.318     23 876 kbps     30 033 kbps     02:08:46.351    27 858 kbps     02:08:46.351    27 756 kbps     02:08:43.082    99 584 bytes    463 608 bytes   02:08:40.512
27              2:09:29.628     0:02:26.913     23 920 kbps     28 745 kbps     02:11:07.693    27 015 kbps     02:11:07.693    26 308 kbps     02:11:07.459    99 766 bytes    387 978 bytes   02:11:07.726
28              2:11:56.541     0:05:06.606     24 089 kbps     28 811 kbps     02:15:23.982    26 801 kbps     02:12:25.437    26 327 kbps     02:12:24.236    100 469 bytes   356 745 bytes   02:12:25.470
29              2:17:03.148     0:03:03.816     25 112 kbps     29 785 kbps     02:19:44.943    27 761 kbps     02:19:49.981    27 339 kbps     02:19:44.976    104 736 bytes   415 540 bytes   02:19:45.009
30              2:20:06.965     0:05:17.483     24 963 kbps     30 896 kbps     02:22:56.067    28 424 kbps     02:21:58.243    27 514 kbps     02:23:16.287    104 117 bytes   455 763 bytes   02:22:56.167
31              2:25:24.449     0:01:56.983     23 538 kbps     28 096 kbps     02:26:16.000    26 619 kbps     02:26:13.030    25 843 kbps     02:26:13.064    98 173 bytes    339 985 bytes   02:27:17.128
32              2:27:21.432     0:06:26.385     25 880 kbps     31 297 kbps     02:28:20.524    28 814 kbps     02:33:00.471    28 444 kbps     02:32:56.333    107 941 bytes   446 490 bytes   02:30:03.027
33              2:33:47.818     0:03:17.430     24 830 kbps     31 628 kbps     02:36:42.025    28 936 kbps     02:36:39.723    27 948 kbps     02:36:34.718    103 561 bytes   448 882 bytes   02:35:09.033
34              2:37:05.249     0:06:36.796     24 607 kbps     31 506 kbps     02:37:30.974    29 216 kbps     02:37:15.192    28 715 kbps     02:42:32.342    102 641 bytes   493 833 bytes   02:37:11.021
[br]
STREAM DIAGNOSTICS:
[br]
File            PID             Type            Codec           Language                Seconds                 Bitrate                 Bytes           Packets
----            ---             ----            -----           --------                --------------          --------------          -------------   -----
00001.M2TS      4113 (0x1011)   0x02            MPEG-2                                  9821,979                24 967                  30 652 796 960  166 763 283
00001.M2TS      4352 (0x1100)   0x80            LPCM            und (Undetermined)      9821,979                1 542                   1 893 686 532   11 786 451
00001.M2TS      4353 (0x1101)   0x86            DTS-HD MA       und (Undetermined)      9821,979                2 141                   2 629 210 140   15 849 145
00001.M2TS      4608 (0x1200)   0x90            PGS             eng (English)           9821,979                20                      24 932 821      144 640
00001.M2TS      4609 (0x1201)   0x90            PGS             fra (French)            9821,979                22                      27 278 046      157 390
00001.M2TS      4610 (0x1202)   0x90            PGS             deu (German)            9821,979                22                      27 271 750      157 357
00001.M2TS      4611 (0x1203)   0x90            PGS             spa (Spanish)           9821,979                23                      28 308 639      162 989
<---- END FORUMS PASTE ---->
QUICK SUMMARY:
Disc Title: Берлиоз - Бенвенуто Челлини (Salzburg Festival) (2007) (Blu-ray 1080i, MPEG-2, DTS-HD 5.1)
Disc Size: 37 893 200 870 bytes
Protection: AACS
BD-Java: Yes
Playlist: 01001.MPLS
Size: 37 527 926 784 bytes
Length: 2:43:42.045
Total Bitrate: 30,57 Mbps
Video: MPEG-2 Video / 24967 kbps / 1080i / 29,970 fps / 16:9
Audio: Undetermined / LPCM Audio / 2.0 / 48 kHz / 1536 kbps / 16-bit
Audio: Undetermined / DTS-HD Master Audio / 5.1 / 48 kHz / 2141 kbps / 16-bit (DTS Core: 5.1 / 48 kHz / 1509 kbps / 16-bit)
Subtitle: English / 20,308 kbps
Subtitle: French / 22,218 kbps
Subtitle: German / 22,213 kbps
Subtitle: Spanish / 23,057 kbps
********************
PLAYLIST: 00000.MPLS
********************
<--- BEGIN FORUMS PASTE --->
Total   Video
Title                                                           Codec   Length  Movie Size      Disc Size       Bitrate Bitrate Main Audio Track                          Secondary Audio Track
-----                                                           ------  ------- --------------  --------------  ------- ------- ------------------                        ---------------------
00000.MPLS                                                      MPEG-2  0:01:30 320 581 632     37 893 200 870  28,48   27,20
DISC INFO:
[br]
Disc Title:     Берлиоз - Бенвенуто Челлини (Salzburg Festival) (2007) (Blu-ray 1080i, MPEG-2, DTS-HD 5.1)
Disc Size:      37 893 200 870 bytes
Protection:     AACS
BD-Java:        Yes
BDInfo:         0.5.8
[br]
PLAYLIST REPORT:
[br]
Name:                   00000.MPLS
Length:                 0:01:30.056 (h:m:s.ms)
Size:                   320 581 632 bytes
Total Bitrate:          28,48 Mbps
[br]
VIDEO:
[br]
Codec                   Bitrate             Description
-----                   -------             -----------
MPEG-2 Video            27201 kbps          1080i / 29,970 fps / 16:9
[br]
FILES:
[br]
Name            Time In         Length          Size            Total Bitrate
----            -------         ------          ----            -------------
00000.M2TS      0:00:00.000     0:01:30.056     320 581 632     28 478
[br]
CHAPTERS:
[br]
Number          Time In         Length          Avg Video Rate  Max 1-Sec Rate  Max 1-Sec Time  Max 5-Sec Rate  Max 5-Sec Time  Max 10Sec Rate  Max 10Sec Time  Avg Frame Size  Max Frame Size  Max Frame Time
------          -------         ------          --------------  --------------  --------------  --------------  --------------  --------------  --------------  --------------  --------------  --------------
1               0:00:00.000     0:00:01.001     14 390 kbps     14 019 kbps     00:00:00.000    0 kbps          00:00:00.000    0 kbps          00:00:00.000    58 083 bytes    111 335 bytes   00:00:00.867
2               0:00:01.001     0:00:01.000     20 698 kbps     20 698 kbps     00:00:01.001    0 kbps          00:00:00.000    0 kbps          00:00:00.000    86 329 bytes    207 486 bytes   00:00:01.735
3               0:00:02.001     0:01:28.054     27 420 kbps     35 381 kbps     00:00:56.956    31 374 kbps     00:00:55.555    30 579 kbps     00:00:51.151    114 409 bytes   480 906 bytes   00:00:58.324
[br]
STREAM DIAGNOSTICS:
[br]
File            PID             Type            Codec           Language                Seconds                 Bitrate                 Bytes           Packets
----            ---             ----            -----           --------                --------------          --------------          -------------   -----
00000.M2TS      4113 (0x1011)   0x02            MPEG-2                                  89,957                  27 231                  306 200 613     1 665 691
<---- END FORUMS PASTE ---->
QUICK SUMMARY:
Disc Title: Берлиоз - Бенвенуто Челлини (Salzburg Festival) (2007) (Blu-ray 1080i, MPEG-2, DTS-HD 5.1)
Disc Size: 37 893 200 870 bytes
Protection: AACS
BD-Java: Yes
Playlist: 00000.MPLS
Size: 320 581 632 bytes
Length: 0:01:30.056
Total Bitrate: 28,48 Mbps
Video: MPEG-2 Video / 27201 kbps / 1080i / 29,970 fps / 16:9
********************
PLAYLIST: 01000.MPLS
********************
<--- BEGIN FORUMS PASTE --->
Total   Video
Title                                                           Codec   Length  Movie Size      Disc Size       Bitrate Bitrate Main Audio Track                          Secondary Audio Track
-----                                                           ------  ------- --------------  --------------  ------- ------- ------------------                        ---------------------
01000.MPLS                                                      MPEG-2  0:01:30 320 581 632     37 893 200 870  28,48   27,20
DISC INFO:
[br]
Disc Title:     Берлиоз - Бенвенуто Челлини (Salzburg Festival) (2007) (Blu-ray 1080i, MPEG-2, DTS-HD 5.1)
Disc Size:      37 893 200 870 bytes
Protection:     AACS
BD-Java:        Yes
BDInfo:         0.5.8
[br]
PLAYLIST REPORT:
[br]
Name:                   01000.MPLS
Length:                 0:01:30.056 (h:m:s.ms)
Size:                   320 581 632 bytes
Total Bitrate:          28,48 Mbps
[br]
VIDEO:
[br]
Codec                   Bitrate             Description
-----                   -------             -----------
MPEG-2 Video            27201 kbps          1080i / 29,970 fps / 16:9
[br]
FILES:
[br]
Name            Time In         Length          Size            Total Bitrate
----            -------         ------          ----            -------------
00000.M2TS      0:00:00.000     0:01:30.056     320 581 632     28 478
[br]
CHAPTERS:
[br]
Number          Time In         Length          Avg Video Rate  Max 1-Sec Rate  Max 1-Sec Time  Max 5-Sec Rate  Max 5-Sec Time  Max 10Sec Rate  Max 10Sec Time  Avg Frame Size  Max Frame Size  Max Frame Time
------          -------         ------          --------------  --------------  --------------  --------------  --------------  --------------  --------------  --------------  --------------  --------------
1               0:00:00.000     0:00:01.001     14 390 kbps     14 019 kbps     00:00:00.000    0 kbps          00:00:00.000    0 kbps          00:00:00.000    58 083 bytes    111 335 bytes   00:00:00.867
2               0:00:01.001     0:00:01.000     20 698 kbps     20 698 kbps     00:00:01.001    0 kbps          00:00:00.000    0 kbps          00:00:00.000    86 329 bytes    207 486 bytes   00:00:01.735
3               0:00:02.001     0:01:28.054     27 420 kbps     35 381 kbps     00:00:56.956    31 374 kbps     00:00:55.555    30 579 kbps     00:00:51.151    114 409 bytes   480 906 bytes   00:00:58.324
[br]
STREAM DIAGNOSTICS:
[br]
File            PID             Type            Codec           Language                Seconds                 Bitrate                 Bytes           Packets
----            ---             ----            -----           --------                --------------          --------------          -------------   -----
00000.M2TS      4113 (0x1011)   0x02            MPEG-2                                  89,957                  27 231                  306 200 613     1 665 691
<---- END FORUMS PASTE ---->
QUICK SUMMARY:
Disc Title: Берлиоз - Бенвенуто Челлини (Salzburg Festival) (2007) (Blu-ray 1080i, MPEG-2, DTS-HD 5.1)
Disc Size: 37 893 200 870 bytes
Protection: AACS
BD-Java: Yes
Playlist: 01000.MPLS
Size: 320 581 632 bytes
Length: 0:01:30.056
Total Bitrate: 28,48 Mbps
Video: MPEG-2 Video / 27201 kbps / 1080i / 29,970 fps / 16:9
Семпл

Скриншоты





Показать сообщения:    

Текущее время: 02-Дек 23:10

Часовой пояс: UTC + 3


Вы не можете начинать темы
Вы не можете отвечать на сообщения
Вы не можете редактировать свои сообщения
Вы не можете удалять свои сообщения
Вы не можете голосовать в опросах
Вы не можете прикреплять файлы к сообщениям
Вы не можете скачивать файлы