(Classical) Bedrich Smetana - Piano Music - Roberto Plano - 2014, FLAC (image+.cue) lossless


 

[Цитировать]

Bedřich Smetana - Piano Music - Roberto Plano
Жанр: Classical
Год издания диска: 2014
Издатель (лейбл): Brilliant Classics
Номер по каталогу: 94788
Дата записи: 2013
Аудиокодек: FLAC
Тип рипа: image+.cue
Битрейт аудио: lossless
Продолжительность: 76:41
Источник: собственный рип
Наличие сканов в содержимом раздачи: да
Треклист:
Bedřich Smetana (1824-1884)
[1] Andante in E flat major
[2] Pensee fugitive
[3]-[8] Album Leaves, Op.2
[9]-[11] Characteristic Pieces, Op.3
[12]-[15] Sketches, Op.4
[16]-[19] Sketches, Op.5
[20] Album Leaf in B flat major, JB1:46 (Allegretto ma non troppo)
[21] Album Leaf in B minor, JB1:32 (Allegro)
[22] Album Leaf, JB1:53 (Toccatina)
[23] Album Leaf in G major, JB2:21 & Trio (Album Leaf in G minor)
[24] Album Leaf in E flat minor, JB1:54 (Lento)
[25] Album Leaf in B flat minor, JB1:52 (Con moto)
[26] Album Leaf for Katerina Kolarova, JB1:20 (Moderato)
[27] Album Leaf for Elisabeth F. Thun, JB1:25 (Allegro)
[28] Album Leaf for Josephine Finke, JB1:21 (Agitato)
[29] Album Leaf for Jean Kunz, JB1:22 (Allegro)
[30] Album Leaf for Vaclav Ulwer, JB1:23 (Grave)
[31] Album Leaf for Marie Proksch, JB1:81 (Moderato)
[32] Album Leaf in F Minor, JB1:117 (Andante)
[33] Album Leaf in G Minor, JB1:121 (Romance)
Исполнители:
Roberto Plano piano

Лог создания рипа

Exact Audio Copy V1.0 beta 3 from 29. August 2011
EAC extraction logfile from 30. May 2015, 19:30
Roberto Plano / Smetana - Piano Music
Used drive : HL-DT-STDVDRAM GU70N Adapter: 0 ID: 0
Read mode : Secure
Utilize accurate stream : Yes
Defeat audio cache : Yes
Make use of C2 pointers : No
Read offset correction : 48
Overread into Lead-In and Lead-Out : No
Fill up missing offset samples with silence : Yes
Delete leading and trailing silent blocks : No
Null samples used in CRC calculations : Yes
Used interface : Native Win32 interface for Win NT & 2000
Used output format : User Defined Encoder
Selected bitrate : 128 kBit/s
Quality : High
Add ID3 tag : No
Command line compressor : C:\Program Files (x86)\Exact Audio Copy\Flac\flac.exe
Additional command line options : -V -8 -T "Date=%year%" -T "Genre=%genre%" %source%
TOC of the extracted CD
Track | Start | Length | Start sector | End sector
---------------------------------------------------------
1 | 0:00.00 | 3:03.59 | 0 | 13783
2 | 3:03.59 | 4:12.34 | 13784 | 32717
3 | 7:16.18 | 1:03.57 | 32718 | 37499
4 | 8:20.00 | 1:54.70 | 37500 | 46119
5 | 10:14.70 | 1:19.01 | 46120 | 52045
6 | 11:33.71 | 3:25.31 | 52046 | 67451
7 | 14:59.27 | 1:55.56 | 67452 | 76132
8 | 16:55.08 | 2:51.49 | 76133 | 89006
9 | 19:46.57 | 3:37.09 | 89007 | 105290
10 | 23:23.66 | 2:09.73 | 105291 | 115038
11 | 25:33.64 | 1:41.42 | 115039 | 122655
12 | 27:15.31 | 1:49.51 | 122656 | 130881
13 | 29:05.07 | 2:53.52 | 130882 | 143908
14 | 31:58.59 | 3:20.48 | 143909 | 158956
15 | 35:19.32 | 3:39.37 | 158957 | 175418
16 | 38:58.69 | 3:07.36 | 175419 | 189479
17 | 42:06.30 | 2:31.73 | 189480 | 200877
18 | 44:38.28 | 2:40.37 | 200878 | 212914
19 | 47:18.65 | 4:58.17 | 212915 | 235281
20 | 52:17.07 | 1:40.55 | 235282 | 242836
21 | 53:57.62 | 1:07.73 | 242837 | 247934
22 | 55:05.60 | 1:50.15 | 247935 | 256199
23 | 56:56.00 | 2:16.37 | 256200 | 266436
24 | 59:12.37 | 3:51.74 | 266437 | 283835
25 | 63:04.36 | 1:21.00 | 283836 | 289910
26 | 64:25.36 | 2:20.38 | 289911 | 300448
27 | 66:45.74 | 1:00.55 | 300449 | 305003
28 | 67:46.54 | 1:12.58 | 305004 | 310461
29 | 68:59.37 | 1:17.01 | 310462 | 316237
30 | 70:16.38 | 1:52.08 | 316238 | 324645
31 | 72:08.46 | 0:57.45 | 324646 | 328965
32 | 73:06.16 | 1:06.18 | 328966 | 333933
33 | 74:12.34 | 2:26.74 | 333934 | 344957
Range status and errors
Selected range
Filename C:\temp\Smetana - Piano Music - Plano\Smetana - Piano Music.wav
Peak level 84.7 %
Extraction speed 2.3 X
Range quality 100.0 %
Test CRC 1766896A
Copy CRC 1766896A
Copy OK
No errors occurred
AccurateRip summary
Track 1 not present in database
Track 2 not present in database
Track 3 not present in database
Track 4 not present in database
Track 5 not present in database
Track 6 not present in database
Track 7 not present in database
Track 8 not present in database
Track 9 not present in database
Track 10 not present in database
Track 11 not present in database
Track 12 not present in database
Track 13 not present in database
Track 14 not present in database
Track 15 not present in database
Track 16 not present in database
Track 17 not present in database
Track 18 not present in database
Track 19 not present in database
Track 20 not present in database
Track 21 not present in database
Track 22 not present in database
Track 23 not present in database
Track 24 not present in database
Track 25 not present in database
Track 26 not present in database
Track 27 not present in database
Track 28 not present in database
Track 29 not present in database
Track 30 not present in database
Track 31 not present in database
Track 32 not present in database
Track 33 not present in database
None of the tracks are present in the AccurateRip database
End of status report
==== Log checksum 203790195DC87DE8326DF2DE6DA331AA4E1E0CBA1E8DE112A1ECC24C8F259FC5 ====



Показать сообщения:    

Текущее время: 09-Дек 03:06

Часовой пояс: UTC + 3


Вы не можете начинать темы
Вы не можете отвечать на сообщения
Вы не можете редактировать свои сообщения
Вы не можете удалять свои сообщения
Вы не можете голосовать в опросах
Вы не можете прикреплять файлы к сообщениям
Вы не можете скачивать файлы