Дорс. Когда ты Странный / The Doors: When You're Strange (Том ДиЧилло / Tom DiCillo) [2009, Документальный, HDTVRip-AVC] MVO (AMEDiA TV)


Статистика раздачи [Обновить пиров]
Размер:  1.15 GB   |    Зарегистрирован:  8 месяцев 14 дней   |    Скачан:  0 раз

Полного источника не было: 3 месяца 10 дней

 
   
 
 
 

[Цитировать]

Дорс. Когда ты Странный / The Doors: When You're Strange- Дата/Год выпуска: 2009
Страна: США | Eagle Rock Entertainment | WNET Channel 13 New York
Жанр: Документальный
Продолжительность: 1:19:25
Перевод: Профессиональный (многоголосый закадровый) | "AMEDiA TV"
Режиссер: Том ДиЧилло / Tom DiCillo-Описание: Легендарные The Doors. Это первый полнометражный документальный фильм о творчестве Джима Моррисона и его группы. Самые знаменитые музыканты своего времени. За 6 лет существования они выпустили 8 золотых альбомов и навсегда увековечили свои имена в Зале славы рок-н-рола. В фильм включены никогда ранее не показывавшиеся публике хроникальные материалы о The Doors, отснятые в промежутке между 1965 годом, когда был основан коллектив, и 1971-м, когда перестало биться сердце его лидера.- -Автор рипа: lrn
Автор записи: Alexin29
Сэмпл: sendfile-Тип релиза: HDTVRip-AVC
Контейнер: MKV
Видео: 1024x576 (16:9), 25,000 fps, H264, ~1500 kbps avg, ~0.102 bit/pixel
Аудио#1: 48 kHz, AC3 Dolby Digital, 3/2 (L,C,R,l,r) + LFE ch, ~384.00 kbps avg | "AMEDiA TV"
Аудио#2: 48 kHz, AC3 Dolby Digital, 2/0 (L,R) ch, ~192.00 kbps avg | Оригинал-

MediaInfo

General
Unique ID : 217928768913289321400301628607909557091 (0xA3F38DDEB2BDE04C970C407AC86B7363)
Complete name : E:\uTorrent.Temp\Temp\The.Doors.When.Youre.Strange.2009.HDTVRip-AVC.x264-RUS-ENG-lrn.mkv
Format : Matroska
Format version : Version 4 / Version 2
File size : 1.15 GiB
Duration : 1h 19mn
Overall bit rate : 2 077 Kbps
Movie name : The.Doors.When.Youre.Strange.2009.HDTVRip-AVC.x264-RUS-ENG-lrn
Encoded date : UTC 2010-02-22 21:41:31 / UTC
Writing application : mkvmerge v5.9.0 ('On The Loose') built on Dec 9 2012 15:37:01
Writing library : libebml v1.3.0 + libmatroska v1.4.0 / Lavf55.12.0
Video
ID : 1
Format : AVC
Format/Info : Advanced Video Codec
Format profile : High@L4.1
Format settings, CABAC : Yes
Format settings, ReFrames : 8 frames
Codec ID : V_MPEG4/ISO/AVC
Duration : 1h 19mn
Bit rate : 1 500 Kbps
Width : 1 024 pixels
Height : 576 pixels
Display aspect ratio : 16:9
Frame rate mode : Constant
Frame rate : 25.000 fps
Color space : YUV
Chroma subsampling : 4:2:0
Bit depth : 8 bits
Scan type : Progressive
Bits/(Pixel*Frame) : 0.102
Stream size : 829 MiB (70%)
Writing library : x264 core 142 r2479 dd79a61
Encoding settings : cabac=1 / ref=8 / deblock=1:-3:-3 / analyse=0x3:0x133 / me=umh / subme=9 / psy=1 / psy_rd=1.00:0.00 / mixed_ref=1 / me_range=32 / chroma_me=1 / trellis=2 / 8x8dct=1 / cqm=0 / deadzone=21,11 / fast_pskip=1 / chroma_qp_offset=-2 / threads=12 / lookahead_threads=2 / sliced_threads=0 / nr=0 / decimate=1 / interlaced=0 / bluray_compat=0 / constrained_intra=0 / bframes=8 / b_pyramid=2 / b_adapt=2 / b_bias=0 / direct=3 / weightb=1 / open_gop=0 / weightp=2 / keyint=250 / keyint_min=25 / scenecut=40 / intra_refresh=0 / rc_lookahead=50 / rc=2pass / mbtree=1 / bitrate=1500 / ratetol=1.0 / qcomp=0.60 / qpmin=0 / qpmax=69 / qpstep=4 / cplxblur=20.0 / qblur=0.5 / vbv_maxrate=62500 / vbv_bufsize=78125 / nal_hrd=none / filler=0 / ip_ratio=1.40 / aq=1:1.00
Default : Yes
Forced : No
Color range : Limited
Color primaries : BT.709
Transfer characteristics : BT.709
Matrix coefficients : BT.709
Audio #1
ID : 2
Format : AC-3
Format/Info : Audio Coding 3
Mode extension : CM (complete main)
Format settings, Endianness : Big
Codec ID : A_AC3
Duration : 1h 19mn
Bit rate mode : Constant
Bit rate : 384 Kbps
Channel(s) : 6 channels
Channel positions : Front: L C R, Side: L R, LFE
Sampling rate : 48.0 KHz
Frame rate : 31.250 fps (1536 spf)
Compression mode : Lossy
Delay relative to video : 150ms
Stream size : 218 MiB (18%)
Language : Russian
Default : Yes
Forced : Yes
Audio #2
ID : 3
Format : AC-3
Format/Info : Audio Coding 3
Mode extension : CM (complete main)
Format settings, Endianness : Big
Codec ID : A_AC3
Duration : 1h 19mn
Bit rate mode : Constant
Bit rate : 192 Kbps
Channel(s) : 2 channels
Channel positions : Front: L R
Sampling rate : 48.0 KHz
Frame rate : 31.250 fps (1536 spf)
Compression mode : Lossy
Delay relative to video : 50ms
Stream size : 109 MiB (9%)
Language : English
Default : No
Forced : No

x264 log

raw [info]: 1024x576p 1:1 @ 25/1 fps (cfr)
x264 [info]: using SAR=1/1
x264 [info]: using cpu capabilities: MMX2 SSE2Fast SSSE3 SSE4.2 AVX
x264 [info]: profile High, level 4.1
x264 [info]: frame I:632 Avg QP:22.15 size: 37438
x264 [info]: frame P:30072 Avg QP:25.69 size: 12977
x264 [info]: frame B:88421 Avg QP:27.10 size: 5416
x264 [info]: consecutive B-frames: 2.9% 4.7% 10.4% 36.8% 17.4% 20.2% 3.9% 2.8% 0.9%
x264 [info]: mb I I16..4: 15.1% 75.3% 9.6%
x264 [info]: mb P I16..4: 3.9% 14.1% 0.9% P16..4: 41.3% 10.6% 7.3% 0.1% 0.0% skip:21.7%
x264 [info]: mb B I16..4: 0.2% 1.4% 0.1% B16..8: 36.2% 6.0% 1.1% direct: 6.0% skip:49.0% L0:45.0% L1:50.5% BI: 4.5%
x264 [info]: 8x8 transform intra:76.3% inter:77.9%
x264 [info]: direct mvs spatial:95.2% temporal:4.8%
x264 [info]: coded y,uvDC,uvAC intra: 64.9% 42.2% 11.5% inter: 19.8% 12.4% 0.2%
x264 [info]: i16 v,h,dc,p: 37% 21% 11% 31%
x264 [info]: i8 v,h,dc,ddl,ddr,vr,hd,vl,hu: 8% 7% 7% 10% 15% 15% 15% 11% 12%
x264 [info]: i4 v,h,dc,ddl,ddr,vr,hd,vl,hu: 10% 7% 4% 9% 15% 15% 15% 11% 13%
x264 [info]: i8c dc,h,v,p: 57% 19% 12% 12%
x264 [info]: Weighted P-Frames: Y:9.7% UV:4.9%
x264 [info]: ref P L0: 48.9% 12.8% 16.8% 6.7% 4.9% 4.0% 3.3% 2.2% 0.5% 0.0%
x264 [info]: ref B L0: 79.1% 10.1% 5.0% 2.3% 1.8% 1.1% 0.6%
x264 [info]: ref B L1: 94.5% 5.5%
x264 [info]: kb/s:1498.90
encoded 119125 frames, 28.19 fps, 1498.90 kb/s

Скриншоты

-
[teatrix.ru].t23000.torrent 
Торрент: Зарегистрирован [ 2016-03-21 00:34 ] · 8E7FE695436BAA8C36DE232C790E150AD6A11A52

Скачать .torrent

Скачать

12 KB

Статус: проверено
Скачан: 0 раз
Размер: 1.15 GB
terms.php



Быстрый ответ

Имя:

      
Для отправки сообщений необходимо включить JavaScript
Показать сообщения:    

Текущее время: 04-Дек 09:08

Часовой пояс: UTC + 3


Вы можете начинать темы
Вы можете отвечать на сообщения
Вы не можете редактировать свои сообщения
Вы не можете удалять свои сообщения
Вы не можете голосовать в опросах
Вы не можете прикреплять файлы к сообщениям
Вы можете скачивать файлы