Забавный профессор. Не только вальс [2016 г., Литературно-музыкальная композиция, WEB-DLRip] Московская государственная академическая филармония


 

[Цитировать]

Забавный профессор. Не только вальс Московская государственная филармония.
Концертный зал имени П. И. Чайковского.

Год выпуска: 2016.
Жанр: Литературно-музыкальная композиция.
Продолжительность: 01:16:02.
Исполнитель: Павел Любимцев (художественное слово).
Национальный академический оркестр народных инструментов России имени Н. П. Осипова.
Дирижер:
Владимир Андропов.
Екатерина Мочалова (домра).
Ансамбль молодых солистов Оркестра имени Н. П. Осипова.
Описание:
Речь пойдёт о бальных классических танцах. Но танцы нужно танцевать, а такой возможности на этом концерте не представляется, поэтому на помощь придут фрагменты из произведений Александра Пушкина, Льва Толстого, Алексея Константиновича Толстого, Саши Чёрного, Эрнста Теодора Амадея Гофмана.
Дополнительная информация:
Страна: Россия .
Автор: Александр Мелентьевич Волков.
Звучит музыка: Иоганна Штрауса, Яна Сибелиуса, Петра Чайковского, Людвига ван Бетховена, Василия Андреева, Михаила Огиньского, Павла Куликова, Станислава Монюшко, Василия Андреева, Бела Бартока, Дмитрия Шостаковича.
Запись из концертного зала имени Чайковского.
Академический симфонический оркестр Московской филармонии.

Абонемент №60: "Забавный профессор".
Седьмой год цикла - "Были и небылицы".

Вечер состоялся 30 января 2016 года.
Релиз
Рип lesik689.

Качество видео:...WEB-DLRip
Формат:.................AVI
Видео:..720x400 (1.80:1), 25 fps, XviD MPEG-4 ~1804 kbps avg, 0.25 bit/pixel
Аудио:..48 kHz, AC3 Dolby Digital, 2/0 (L,R) ch, ~192 kbps

Отчет Media Info

General
Complete name : Zabavnyj.professor.Ne.tol'ko.vals_KZCh.2016.XviD.WEB-DLRip.fenixclub.avi
Format : AVI
Format/Info : Audio Video Interleave
File size : 1.07 GiB
Duration : 1h 16mn
Overall bit rate : 2 006 Kbps
Writing application : VirtualDubMod 1.5.10.2 (build 2542/release)
Writing library : VirtualDubMod build 2542/release
Video
ID : 0
Format : MPEG-4 Visual
Format profile : Advanced Simple@L5
Format settings, BVOP : 2
Format settings, QPel : No
Format settings, GMC : No warppoints
Format settings, Matrix : Default (MPEG)
Codec ID : XVID
Codec ID/Hint : XviD
Duration : 1h 16mn
Bit rate : 1 804 Kbps
Width : 720 pixels
Height : 400 pixels
Display aspect ratio : 16:9
Original display aspect rat : 16:9
Frame rate : 25.000 fps
Color space : YUV
Chroma subsampling : 4:2:0
Bit depth : 8 bits
Scan type : Progressive
Compression mode : Lossy
Bits/(Pixel*Frame) : 0.251
Stream size : 981 MiB (90%)
Writing library : XviD 73
Audio
ID : 1
Format : AC-3
Format/Info : Audio Coding 3
Mode extension : CM (complete main)
Format settings, Endianness : Big
Codec ID : 2000
Duration : 1h 16mn
Bit rate mode : Constant
Bit rate : 192 Kbps
Channel(s) : 2 channels
Channel positions : Front: L R
Sampling rate : 48.0 KHz
Compression mode : Lossy
Stream size : 104 MiB (10%)
Alignment : Aligned on interleaves
Interleave, duration : 40 ms (1.00 video frame)
Interleave, preload duratio : 512 ms.

Скриншоты

Альтернативный хост




Показать сообщения:    

Текущее время: 11-Дек 12:58

Часовой пояс: UTC + 3


Вы не можете начинать темы
Вы не можете отвечать на сообщения
Вы не можете редактировать свои сообщения
Вы не можете удалять свои сообщения
Вы не можете голосовать в опросах
Вы не можете прикреплять файлы к сообщениям
Вы не можете скачивать файлы