Убийцы (Марика Бейку, Александр Гордон, Андрей Тарковский) [1956, СССР, короткометражка, BDRip] Original (Rus)


 

[Цитировать]

Убийцы
Страна: СССР
Жанр: короткометражка
Годы выпуска: 1956
Продолжительность: 00:20:38
Перевод: не требуется
Cубтитры: нет
Оригинальная аудиодорожка: русский
Режиссеры: Марика Бейку, Александр Гордон, Андрей Тарковский
В ролях: Юлий Файт, Александр Гордон, Валентин Виноградов, Вадим Новиков, Юрий Дубровин, Андрей Тарковский, Василий Шукшин
Описание: «Убийцы» — короткометражная экранизация одноименного рассказа американского писателя Эрнеста Хемингуэя (англ. The Killers, 1927), курсовая работа, поставленная осенью 1956 года группой студентов ВГИКа, обучавшихся в режиссёрском классе Михаила Ромма.
Обычный вечер в маленьком городке. В бар заходят два подозрительных молодых человека. Они будут ждать Оле Андерсона, чтобы убить его…

Доп. информация:
Качество видео: BDRip | Core_soul/BDRemux 1080p
Формат видео: AVI
Видео: 720x544 (1.32:1), 23.976 fps, XviD build 73 ~2316 kbps avg, 0.25 bit/pixel
Аудио: 48 kHz, AC3 Dolby Digital, 1/0 (C) ch, ~192 kbps

MediaInfo

General
Complete name : C:\Users\User\Desktop\Ubiytsy.1956.BDRip_by_LBS.avi
Format : AVI
Format/Info : Audio Video Interleave
File size : 372 MiB
Duration : 20mn 38s
Overall bit rate : 2 518 Kbps
Director : Last Boy Scout
Writing application : VirtualDubMod 1.5.10.3 | www.virtualdub-fr.org || (build 2550/release)
Copyright : rutracker.org 16.02.2016
Comment : BDRip
Video
ID : 0
Format : MPEG-4 Visual
Format profile : Advanced Simple@L5
Format settings, BVOP : 1
Format settings, QPel : No
Format settings, GMC : No warppoints
Format settings, Matrix : Custom
Codec ID : XVID
Codec ID/Hint : XviD
Duration : 20mn 38s
Bit rate : 2 317 Kbps
Width : 720 pixels
Height : 544 pixels
Display aspect ratio : 4:3
Frame rate : 23.976 fps
Color space : YUV
Chroma subsampling : 4:2:0
Bit depth : 8 bits
Scan type : Progressive
Compression mode : Lossy
Bits/(Pixel*Frame) : 0.247
Stream size : 342 MiB (92%)
Writing library : XviD 73
Audio
ID : 1
Format : AC-3
Format/Info : Audio Coding 3
Mode extension : CM (complete main)
Format settings, Endianness : Big
Codec ID : 2000
Duration : 20mn 38s
Bit rate mode : Constant
Bit rate : 192 Kbps
Channel(s) : 1 channel
Channel positions : Front: C
Sampling rate : 48.0 KHz
Bit depth : 16 bits
Compression mode : Lossy
Stream size : 28.3 MiB (8%)
Alignment : Split accross interleaves
Interleave, duration : 42 ms (1.00 video frame)
Interleave, preload duration : 500 ms

Скриншоты




Показать сообщения:    

Текущее время: 10-Дек 23:32

Часовой пояс: UTC + 3


Вы не можете начинать темы
Вы не можете отвечать на сообщения
Вы не можете редактировать свои сообщения
Вы не можете удалять свои сообщения
Вы не можете голосовать в опросах
Вы не можете прикреплять файлы к сообщениям
Вы не можете скачивать файлы