Йога терапия поясницы / Yoga Therapy for Lower Back [2015, Yoga, WEBRip, ENG] (Видеоурок)


Статистика раздачи [Обновить пиров]
Размер:  502 MB   |    Зарегистрирован:  8 месяцев 21 день   |    Скачан:  1 раз

Полного источника не было: 1 месяц 29 дней

 
   
 
 
 

[Цитировать]

Йога терапия поясницы / Yoga Therapy for Lower Back
Страна: USA
Автор: Tatiana Urquiza
Тематика: Yoga
Тип раздаваемого материала: Видеоурок
Продолжительность: 00:40:46
Год выпуска: 2015
Язык: Английский
Перевод: Отсутствует
Описание: This general level class is for students with limited flexibly, mobility and strength due to medical conditions, injury, joint replacement and post-surgery. /
Этот общий видеоурок для студентов с ограниченной гибкостью, мобильностью и прочностью из-за медицинских показаний, травм, эндопротезирования и после операции.
Качество: WEBRip
Формат: MP4
Видео кодек: VC-1
Аудио кодек: AAC
Видео: AVC, 1280x720, 16:9, 23.976 fps, 1554 Kbps
Аудио: AAC, 48.0 KHz, 160 Kbps, 2 channels

MediaInfo

General
Format : MPEG-4
Format profile : Base Media / Version 2
Codec ID : mp42 (isom/iso2/avc1/mp41)
File size : 502 MiB
Duration : 40mn 46s
Overall bit rate mode : Variable
Overall bit rate : 1 721 Kbps
Encoded date : UTC 2036-02-06 06:28:16
Tagged date : UTC 2036-02-06 06:28:16
Writing application : HandBrake 0.10.2 2015060900
Video
ID : 1
Format : AVC
Format/Info : Advanced Video Codec
Format profile : Main@L4
Format settings, CABAC : Yes
Format settings, ReFrames : 4 frames
Codec ID : avc1
Codec ID/Info : Advanced Video Coding
Duration : 40mn 46s
Bit rate : 1 554 Kbps
Width : 1 280 pixels
Height : 720 pixels
Display aspect ratio : 16:9
Frame rate mode : Variable
Frame rate : 23.976 (24000/1001) fps
Minimum frame rate : 23.974 fps
Maximum frame rate : 23.981 fps
Color space : YUV
Chroma subsampling : 4:2:0
Bit depth : 8 bits
Scan type : Progressive
Bits/(Pixel*Frame) : 0.070
Stream size : 453 MiB (90%)
Writing library : x264 core 142 r2479 dd79a61
Encoded date : UTC 2036-02-06 06:28:16
Tagged date : UTC 2036-02-06 06:28:16
Color range : Limited
Color primaries : BT.709
Transfer characteristics : BT.709
Matrix coefficients : BT.709
Audio
ID : 2
Format : AAC
Format/Info : Advanced Audio Codec
Format profile : LC
Codec ID : 40
Duration : 40mn 46s
Bit rate mode : Variable
Bit rate : 160 Kbps
Channel(s) : 2 channels
Channel positions : Front: L R
Sampling rate : 48.0 KHz
Frame rate : 46.875 fps (1024 spf)
Compression mode : Lossy
Stream size : 46.8 MiB (9%)
Title : Stereo / Stereo
Default : Yes
Alternate group : 1
Encoded date : UTC 2036-02-06 06:28:16
Tagged date : UTC 2036-02-06 06:28:16

Скриншоты

[teatrix.ru].t23005.torrent 
Торрент: Зарегистрирован [ 2016-03-21 00:34 ] · 330117C0A97E1345BBC34429E7DC3D9D9226FD24

Скачать .torrent

Скачать

20 KB

Статус: проверено
Скачан: 1 раз
Размер: 502 MB
terms.php



Быстрый ответ

Имя:

      
Для отправки сообщений необходимо включить JavaScript
Показать сообщения:    

Текущее время: 11-Дек 07:15

Часовой пояс: UTC + 3


Вы можете начинать темы
Вы можете отвечать на сообщения
Вы не можете редактировать свои сообщения
Вы не можете удалять свои сообщения
Вы не можете голосовать в опросах
Вы не можете прикреплять файлы к сообщениям
Вы можете скачивать файлы