[SACD-R][OF] Sakari Oramo, Royal Stockholm Philharmonic Orchestra - Carl Nielsen: Symphonies 2 "De fire Temperamenter (The Four Temperaments)" & 6 "Sinfonia Semplice" - 2015 (Classical; Orchestral)


Статистика раздачи [Обновить пиров]
Размер:  3 GB   |    Зарегистрирован:  8 месяцев 20 дней   |    Скачан:  0 раз

Полного источника не было: Никогда

 
   
 
 
 

[Цитировать]

Sakari Oramo, Royal Stockholm Philharmonic Orchestra
Carl Nielsen: Symphony No.2 "De fire Temperamenter (The Four Temperaments)", Op.16, FS29
Symphony No.6 "Sinfonia Semplice", FS116
- Формат записи/Источник записи: [SACD-R][OF]
Наличие водяных знаков: Нет
Год издания/переиздания диска: 2015
Жанр: Classical; Orchestral
Издатель(лейбл): BIS Records
Продолжительность: 01:04:34
Наличие сканов в содержимом раздачи: Нет-Треклист:
Carl Nielsen (1865–1931)
Symphony No.2 "De fire Temperamenter (The Four Temperaments)", Op.16 / FS29 (1901-02)

1. I. Allegro collerico 8'51
2. II. Allegro comodo e flemmatico 4'27
3. III. Andante malincolico 10'43
4. IV. Allegro sanguineo 7'09
Symphony No.6 "Sinfonia Semplice", FS116 (1924-25)
5. I. Tempo giusto 12'43
6. II. Humoresque. Allegretto 3'56
7. III. Proposta seria. Adagio 5'07
8. IV. Theme and Variations. Allegro 10'29-Royal Stockholm Philharmonic Orchestra, orchestra
Sakari Oramo, conductor-Контейнер: ISO (*.iso)
Тип рипа: image
Разрядность: 64(2,8 MHz/1 Bit)
Формат: DST64
Количество каналов: 5.0, 2.0
Доп. информация: BIS-2128 SACD; EAN 7318599921280
Release - Mar 2015
Recording type - PCM 24/96
http://sa-cd.net/showtitle/10539
http://www.bis.se/index.php?op=album&aID=BIS-2128

DR 14/13

foobar2000 1.3.8 / Замер динамического диапазона (DR) 1.1.1
Дата отчёта: 2016-02-16 01:56:21
--------------------------------------------------------------------------------
Анализ: Royal Stockholm Philharmonic Orchestra / Sakari Oramo / Nielsen - Symphonies Nos 2 & 6
--------------------------------------------------------------------------------
DR Пики RMS Продолжительность трека
--------------------------------------------------------------------------------
DR12 -5.03 дБ -23.00 дБ 8:55 01-Symphony No. 2: I. Allegro collerico
DR13 -12.04 дБ -32.66 дБ 4:32 02-II. Allegro comodo e flemmatico
DR13 -3.48 дБ -24.79 дБ 10:45 03-III. Andante malincolico
DR13 -3.30 дБ -24.00 дБ 7:24 04-IV. Allegro sanguineo
DR15 -4.30 дБ -27.30 дБ 12:49 05-Symphony No. 6: I. Tempo giusto
DR16 -8.68 дБ -34.98 дБ 4:01 06-II. Humoresque. Allegretto
DR13 -13.13 дБ -33.64 дБ 5:12 07-III. Proposta seria. Adagio
DR14 -5.17 дБ -27.75 дБ 10:57 08-IV. Theme and Variations. Allegro
--------------------------------------------------------------------------------
Количество треков: 8
Реальные значения DR: DR14
Частота: 2822400 Гц / Частота PCM: 88200 Гц
Каналов: 5
Разрядность: 24
Битрейт: 14112 кбит/с
Кодек: DST64
================================================================================
--------------------------------------------------------------------------------
Анализ: Royal Stockholm Philharmonic Orchestra / Sakari Oramo / Nielsen - Symphonies Nos 2 & 6
--------------------------------------------------------------------------------
DR Пики RMS Продолжительность трека
--------------------------------------------------------------------------------
DR11 -4.32 дБ -19.82 дБ 8:55 01-Symphony No. 2: I. Allegro collerico
DR13 -9.70 дБ -29.11 дБ 4:32 02-II. Allegro comodo e flemmatico
DR12 -4.31 дБ -21.67 дБ 10:45 03-III. Andante malincolico
DR12 -4.30 дБ -20.89 дБ 7:24 04-IV. Allegro sanguineo
DR14 -4.33 дБ -23.32 дБ 12:49 05-Symphony No. 6: I. Tempo giusto
DR16 -8.00 дБ -30.53 дБ 4:01 06-II. Humoresque. Allegretto
DR13 -11.25 дБ -29.21 дБ 5:12 07-III. Proposta seria. Adagio
DR14 -4.31 дБ -23.72 дБ 10:57 08-IV. Theme and Variations. Allegro
--------------------------------------------------------------------------------
Количество треков: 8
Реальные значения DR: DR13
Частота: 2822400 Гц / Частота PCM: 88200 Гц
Каналов: 2
Разрядность: 24
Битрейт: 5645 кбит/с
Кодек: DST64
================================================================================
[SACD-R][OF] Sakari Oramo, Royal Stockholm Philharmonic Orchestra - Carl Nielsen: Symphony No. 1 in G minor, Op. 7; Symphony No.3, ‘Sinfonia espansiva’, Op.27 - 2014 (Orchestral)
[SACD-R][OF]Sakari Oramo, Royal Stockholm Philharmonic Orchestra - Carl Nielsen: Symphonies 2 "De fire Temperamenter (The Four Temperaments)" & 6 "Sinfonia Semplice" - 2015
[SACD-R][OF] Sakari Oramo, Royal Stockholm Philharmonic Orchestra - Carl Nielsen: Symphony No. 1 in G minor, Op. 7; Symphony No.3, ‘Sinfonia espansiva’, Op.27 - 2014 (Orchestral)
[SACD-R][OF]Sakari Oramo, Royal Stockholm Philharmonic Orchestra - Carl Nielsen: Symphony 4 ”Det uudslukkelige” (The Inextinguishable) Op.29; Symphony 5 Op.50 - 2013
[teatrix.ru].t23006.torrent 
Торрент: Зарегистрирован [ 2016-03-21 00:34 ] · 81BB1AA95C9CF37C1873F706770B5237239E7819

Скачать .torrent

Скачать

31 KB

Статус: проверено
Скачан: 0 раз
Размер: 3 GB
terms.php



Быстрый ответ

Имя:

      
Для отправки сообщений необходимо включить JavaScript
Показать сообщения:    

Текущее время: 10-Дек 15:46

Часовой пояс: UTC + 3


Вы можете начинать темы
Вы можете отвечать на сообщения
Вы не можете редактировать свои сообщения
Вы не можете удалять свои сообщения
Вы не можете голосовать в опросах
Вы не можете прикреплять файлы к сообщениям
Вы можете скачивать файлы