Joe Hisaishi & World Dream Orchestra 2015 [2015, Neo Classical, New Age, Piano, Orchestral, Choral, Vocal, HDTVRip]


 

[Цитировать]

Joe Hisaishi & World Dream Orchestra 2015 / 久石譲 × 新日本フィルハーモニー交響楽団 World Dream Orchestra 2015
Год выпуска: 2015
Лейбл: WOWOW Entertainment. Inc.
Страна-производитель: Japan
Жанр: Neo Classical, New Age, Piano, Orchestral, Choral, Vocal
Продолжительность: 01:43:24
Язык: японский
Перевод: нет
Субтитры: да (тексты песен)
Режиссер/Хореограф: Joe Hisaishi
Исполнители: Joe Hisaishi, New Japan Philharmonic World Dream Orchestra
Треклист:
01. 祈りのうた ~Homage to Henryk Gorecki~
- The End of the World (for Vocalists and Orchestra) -
02. I. Collapse
03. II. Grace of the St.Paul
04. III. Dead
05. IV. Beyond of the World
06. V. The End of the World (Vocal Number)
07. 紅の豚 Il porco rosso ~ Madness
08. Dream More
09. Symphonic Poem “NAUSICAA” 2015
10. Your Story 2015
11. World Dreams
Описание: Концерт, прошедший 8 августа 2015 г. в Сантори-Мюзик-Холле в Токио. 23 сентября транслировался японской телекомпанией WOWOW.

Доп. информация:

Информация на сайте телеканала: http://www.wowow.co.jp/pg_info/detail/107361/index.php?m=01
Информация на сайте Сантори-Мюзик-Холла: http://www.suntory.com/culture-sports/suntoryhall/schedule/detail/20150808_M_3.html
Информация на сайте Дзё Хисаиси: http://www.joehisaishi.com/information/2015/09/tv_wdo2015wowow.html
Качество видео: HDTVRip
Формат/Контейнер: MKV
Видео кодек: AVC
Аудио кодек: AAC
Видео поток: 1280x720 (16:9), 3028 kbps, 29,970 fps
Аудио поток: AAC, 192 Kbps, 48,0 kHz, 2 ch

MediaInfo

Общее
Уникальный идентификатор : 243076492035259388622774456260406541917 (0xB6DED458B7D7038CB709D25C5213FE5D)
Полное имя : E:\Downloads\Torrents\Joe Hisaishi & World Dream Orchestra 2015.mkv
Формат : Matroska
Версия формата : Version 4 / Version 2
Размер файла : 2,33 Гбайт
Продолжительность : 1 ч. 43 м.
Общий поток : 3223 Кбит/сек
Дата кодирования : UTC 2016-02-16 12:06:52
Программа кодирования : mkvmerge v8.8.0 ('Wind at my back') 64bit
Библиотека кодирования : libebml v1.3.3 + libmatroska v1.4.4
Видео
Идентификатор : 1
Формат : AVC
Формат/Информация : Advanced Video Codec
Профиль формата : High@L4
Параметр CABAC формата : Да
Параметр ReFrames формата : 6 кадров
Идентификатор кодека : V_MPEG4/ISO/AVC
Продолжительность : 1 ч. 43 м.
Битрейт : 3028 Кбит/сек
Ширина : 1280 пикселей
Высота : 720 пикселей
Соотношение сторон : 16:9
Режим частоты кадров : Постоянный
Частота кадров : 29,970 (30000/1001) кадров/сек
Цветовое пространство : YUV
Субдискретизация насыщенности : 4:2:0
Битовая глубина : 8 бит
Тип развёртки : Прогрессивная
Бит/(Пиксели*Кадры) : 0.110
Размер потока : 2,19 Гбайт (94%)
Библиотека кодирования : x264 core 142 r2431+42 c69a006 tMod [8-bit@all X86_64]
Настройки программы : cabac=1 / ref=6 / deblock=1:-1:-1 / analyse=0x3:0x133 / me=umh / subme=10 / psy=1 / fade_compensate=0.00 / psy_rd=0.60:0.00 / mixed_ref=1 / me_range=16 / chroma_me=1 / trellis=2 / 8x8dct=1 / cqm=0 / deadzone=21,11 / fast_pskip=1 / chroma_qp_offset=-2 / threads=6 / lookahead_threads=1 / sliced_threads=0 / nr=0 / decimate=1 / interlaced=0 / bluray_compat=0 / constrained_intra=0 / fgo=0 / bframes=6 / b_pyramid=2 / b_adapt=2 / b_bias=0 / direct=3 / weightb=1 / open_gop=0 / weightp=2 / keyint=240 / keyint_min=1 / scenecut=40 / intra_refresh=0 / rc_lookahead=60 / rc=crf / mbtree=1 / crf=20.0000 / qcomp=0.80 / qpmin=0:0:0 / qpmax=69:69:69 / qpstep=4 / ip_ratio=1.40 / aq=1:0.80 / aq-sensitivity=10.00 / aq-factor=1.00:1.00:1.00 / aq2=0 / aq3=0
Default : Да
Forced : Нет
Аудио
Идентификатор : 2
Формат : AAC
Формат/Информация : Advanced Audio Codec
Профиль формата : LC
Идентификатор кодека : A_AAC
Продолжительность : 1 ч. 43 м.
Битрейт : 192 Кбит/сек
Каналы : 2 канала
Расположение каналов : Front: L R
Частота : 48,0 КГц
Частота кадров : 46,875 кадров/сек (1024 spf)
Метод сжатия : С потерями
Размер потока : 142 Мбайт (6%)
Язык : Japanese
Default : Да
Forced : Нет

Скриншоты




Показать сообщения:    

Текущее время: 10-Дек 09:53

Часовой пояс: UTC + 3


Вы не можете начинать темы
Вы не можете отвечать на сообщения
Вы не можете редактировать свои сообщения
Вы не можете удалять свои сообщения
Вы не можете голосовать в опросах
Вы не можете прикреплять файлы к сообщениям
Вы не можете скачивать файлы