Бенджамин Бриттен - Билли Бад (Глайндеборнский оперный театр; Майкл Грандадж, Марк Элдер) / Benjamin Britten - Billy Budd (Glyndebourne Opera House; Michael Grandage, Mark Elder; Ainsley, Imbrailo, Ens, Paterson, Rose) [2010, Opera, Blu-ray 1080i]


 

[Цитировать]

Бенджамин Бриттен - Билли Бад / Benjamin Britten - Billy Budd
Год выпуска: 2010
Лейбл: Opus Arte
Страна-производитель: Великобритания
Жанр: Opera
Продолжительность: 02:52:46
Язык: Английский
Режиссер: Michael Grandage (Майкл Грандадж)
Дирижер: Mark Elder (Марк Элдер)
Исполнители:
John Mark Ainsley (Джон Марк Эйнсли) - Captain Vere,
Jacques Imbrailo (Жак Имбрайо) - Billy Budd,
Phillip Ens (Филлип Энс) - Claggart,
Iain Paterson (Йен Патерсон) - Mr Redburn,
Matthew Rose (Мэттью Роуз) - Mr Flint,
Darren Jeffery (Даррен Джеффери) - Lieutenant Ratcliffe,
Alasdair Elliott (Аласдейр Эллиот) - Red Whiskers,
John Moore (Джон Мур) - Donald,
Jeremy White (Джереми Уайт) - Dansker,
Ben Johnson (Бен Джонсон) - Novice,
Colin Judson (Колин Джадсон) - Squeak,
Richard Mosley-Evans (Мосли-Эванс Ричард) - Bosun
The Glyndebourne Chorus (Глайндборнский хор), London Philharmonic Orchestra (Лондонский филармонический оркест)
Описание: Либретто оперы написано по повести Г. Мелвилла (автора "Моби Дика") "Билли Бадд, фор-марсовый матрос" и описывает события, произошедшие на английском линейном корабле "Неустрашимый" в 1797 году. В повести две основные сюжетные линии: сложные взаимоотношения между матросом Билли Баддом и каптенармусом Клэггартом - это раз, и борьба долга с совестью - два. Каптенармус (эквивалент начальника полиции на корабле) Джон Клэггарт питает к фор-марсовому Билли Бадду, любимцу команды, весьма противоречивые чувства, в конце концов решает его погубить и обвиняет матроса в подстрекательстве к мятежу. Но выходит так, что Билли Бадд случайно убивает Клэггарта и по законам военного времени должен быть за это повешен, что и исполняется. Но центральная фигура повести, на чью долю выпадает больше всего моральных терзаний - это капитан "Неустрашимого", который должен вынести Билли смертный приговор, зная, что матрос, по сути, невиновен, так как его оклеветали и спровоцировали.

Оригинальное описание

Glyndebourne has a proud association with the operas of Benjamin Britten, however until 2010 had never staged Billy Budd. The all-male opera with a libretto co-written by EM Forster, is based on the battle between pure good and blind evil, and is set on a British man-‘o-war ship.
Michael Grandage, Artistic Director of the Donmar Warehouse, chose this work to make his long-awaited operatic debut. Sir Mark Elder returned to conduct the production, marking the 100th opera production in his illustrious career.
Recorded live at Glyndebourne Opera House, Lewes, East Sussex, UK, 8 & 11 June 2010.
Бонус:
Introducing Billy Budd (00:10:50)
Designs on Billy Budd (00:09:03)
Cast gallery (00:00:48)
Об опере
Качество видео: Blu-ray
Формат/Контейнер: BDMV
Видео кодек: MPEG4
Аудио кодек: LPCM, DTS
Видео поток: 1920x1080i, MPEG-4 Video, 29.970 fps, 16:9, 23948 kbps
Аудио поток 1: LPCM, 2 ch, 48 kHz, 24-bit, 2304 kbps
Аудио поток 2: DTS-HD MA, 5.1 ch, 48 kHz, 24-bit, 4085 kbps (DTS Core: 5.1 / 48 kHz / 1509 kbps / 24-bit)
Субтитры: Английские, немецкие, французские, испанские

BD-Info

Disc Title: Бриттен Бенджамин - Билли Бад (Glyndebourne Opera House) (2010) (Blu-ray 1080i, AVC, DTS-HD 5.1)
Disc Size: 45 704 364 848 bytes
Protection: AACS
BD-Java: No
BDInfo: 0.5.8
Notes:
BDINFO HOME:
Cinema Squid
http://www.cinemasquid.com/blu-ray/tools/bdinfo
INCLUDES FORUMS REPORT FOR:
AVS Forum Blu-ray Audio and Video Specifications Thread
http://www.avsforum.com/avs-vb/showthread.php?t=1155731
********************
PLAYLIST: 00002.MPLS
********************
<--- BEGIN FORUMS PASTE --->
Total   Video
Title                                                           Codec   Length  Movie Size      Disc Size       Bitrate Bitrate Main Audio Track                          Secondary Audio Track
-----                                                           ------  ------- --------------  --------------  ------- ------- ------------------                        ---------------------
00002.MPLS                                                      AVC     2:52:46 41 678 739 456  45 704 364 848  32,16   23,95   DTS-HD Master 5.1 4085Kbps (48kHz/24-bit) LPCM 2.0 2304Kbps (48kHz/24-bit)
DISC INFO:
[br]
Disc Title:     Бриттен Бенджамин - Билли Бад (Glyndebourne Opera House) (2010) (Blu-ray 1080i, AVC, DTS-HD 5.1)
Disc Size:      45 704 364 848 bytes
Protection:     AACS
BD-Java:        No
BDInfo:         0.5.8
[br]
PLAYLIST REPORT:
[br]
Name:                   00002.MPLS
Length:                 2:52:46.389 (h:m:s.ms)
Size:                   41 678 739 456 bytes
Total Bitrate:          32,16 Mbps
[br]
VIDEO:
[br]
Codec                   Bitrate             Description
-----                   -------             -----------
MPEG-4 AVC Video        23948 kbps          1080i / 29,970 fps / 16:9 / High Profile 4.1
[br]
AUDIO:
[br]
Codec                           Language        Bitrate         Description
-----                           --------        -------         -----------
DTS-HD Master Audio             English         4085 kbps       5.1 / 48 kHz / 4085 kbps / 24-bit (DTS Core: 5.1 / 48 kHz / 1509 kbps / 24-bit)
LPCM Audio                      English         2304 kbps       2.0 / 48 kHz / 2304 kbps / 24-bit
[br]
SUBTITLES:
[br]
Codec                           Language        Bitrate         Description
-----                           --------        -------         -----------
Presentation Graphics           English         24,418 kbps
Presentation Graphics           French          27,661 kbps
Presentation Graphics           German          27,524 kbps
Presentation Graphics           Spanish         25,803 kbps
[br]
FILES:
[br]
Name            Time In         Length          Size            Total Bitrate
----            -------         ------          ----            -------------
00008.M2TS      0:00:00.000     2:52:46.389     41 678 739 456  32 165
[br]
CHAPTERS:
[br]
Number          Time In         Length          Avg Video Rate  Max 1-Sec Rate  Max 1-Sec Time  Max 5-Sec Rate  Max 5-Sec Time  Max 10Sec Rate  Max 10Sec Time  Avg Frame Size  Max Frame Size  Max Frame Time
------          -------         ------          --------------  --------------  --------------  --------------  --------------  --------------  --------------  --------------  --------------  --------------
1               0:00:00.000     0:01:16.142     5 172 kbps      38 597 kbps     00:01:15.141    10 176 kbps     00:01:11.137    8 709 kbps      00:00:18.952    21 562 bytes    394 470 bytes   00:01:15.442
2               0:01:16.142     0:05:38.771     24 669 kbps     58 631 kbps     00:01:16.776    31 367 kbps     00:01:16.776    29 279 kbps     00:01:16.776    102 891 bytes   490 600 bytes   00:01:17.510
3               0:06:54.914     0:03:48.394     24 554 kbps     35 313 kbps     00:08:28.274    31 181 kbps     00:07:49.802    28 352 kbps     00:07:45.164    102 411 bytes   418 988 bytes   00:07:29.715
4               0:10:43.309     0:02:37.824     25 318 kbps     36 904 kbps     00:11:46.405    31 908 kbps     00:11:46.005    29 166 kbps     00:11:30.956    105 598 bytes   332 623 bytes   00:11:31.323
5               0:13:21.133     0:08:27.807     23 887 kbps     35 437 kbps     00:21:34.760    28 939 kbps     00:13:33.312    27 778 kbps     00:18:19.298    99 630 bytes    433 059 bytes   00:17:34.153
6               0:21:48.940     0:01:59.285     24 843 kbps     33 001 kbps     00:22:45.630    29 010 kbps     00:22:45.630    27 339 kbps     00:22:15.434    103 615 bytes   344 092 bytes   00:22:45.664
7               0:23:48.226     0:03:02.949     23 689 kbps     28 309 kbps     00:25:27.959    25 357 kbps     00:26:04.763    24 806 kbps     00:25:02.067    98 801 bytes    296 831 bytes   00:25:37.903
8               0:26:51.176     0:04:32.672     23 751 kbps     30 491 kbps     00:30:10.875    27 692 kbps     00:27:19.971    26 624 kbps     00:30:58.189    99 061 bytes    338 778 bytes   00:28:41.786
9               0:31:23.848     0:01:27.053     24 528 kbps     32 819 kbps     00:31:39.597    26 495 kbps     00:32:37.922    25 866 kbps     00:32:32.717    102 303 bytes   360 931 bytes   00:32:35.353
10              0:32:50.902     0:03:17.964     24 029 kbps     33 879 kbps     00:34:57.528    28 145 kbps     00:34:55.960    27 050 kbps     00:34:56.294    100 220 bytes   359 939 bytes   00:34:57.662
11              0:36:08.866     0:09:53.793     22 948 kbps     33 705 kbps     00:38:36.147    28 027 kbps     00:45:46.043    25 462 kbps     00:45:41.105    95 714 bytes    384 867 bytes   00:39:53.624
12              0:46:02.659     0:03:18.965     23 275 kbps     32 197 kbps     00:47:41.792    28 430 kbps     00:47:41.592    26 553 kbps     00:49:02.406    97 076 bytes    337 083 bytes   00:49:02.906
13              0:49:21.625     0:03:58.104     23 205 kbps     30 052 kbps     00:52:19.903    26 472 kbps     00:49:23.260    25 849 kbps     00:49:22.125    96 783 bytes    260 910 bytes   00:49:49.186
14              0:53:19.729     0:07:29.248     24 590 kbps     34 712 kbps     00:59:11.114    31 450 kbps     01:00:43.306    30 472 kbps     01:00:38.267    102 559 bytes   360 603 bytes   01:00:23.786
15              1:00:48.978     0:04:47.954     24 741 kbps     35 885 kbps     01:02:52.969    30 661 kbps     01:02:52.969    29 476 kbps     01:03:30.640    103 189 bytes   379 868 bytes   01:02:53.002
16              1:05:36.933     0:05:17.050     23 555 kbps     29 275 kbps     01:10:41.570    26 763 kbps     01:10:31.827    26 415 kbps     01:10:32.394    98 244 bytes    349 352 bytes   01:07:49.432
17              1:10:53.983     0:05:15.381     23 744 kbps     31 622 kbps     01:14:06.608    27 768 kbps     01:11:48.971    26 483 kbps     01:11:45.834    99 030 bytes    324 651 bytes   01:13:03.912
18              1:16:09.364     0:04:11.284     23 873 kbps     30 281 kbps     01:20:12.741    28 123 kbps     01:17:48.530    27 822 kbps     01:17:47.329    99 571 bytes    291 473 bytes   01:16:17.072
19              1:20:20.649     0:05:27.960     24 933 kbps     36 966 kbps     01:25:19.848    33 996 kbps     01:25:19.714    33 439 kbps     01:25:19.714    103 990 bytes   382 949 bytes   01:25:38.199
20              1:25:48.610     0:04:09.048     23 458 kbps     53 413 kbps     01:26:31.019    32 276 kbps     01:25:48.943    30 065 kbps     01:25:48.943    97 840 bytes    514 047 bytes   01:25:49.244
21              1:29:57.658     0:10:57.657     25 098 kbps     38 005 kbps     01:34:58.959    30 896 kbps     01:34:58.959    29 244 kbps     01:39:17.318    104 681 bytes   557 345 bytes   01:36:28.315
22              1:40:55.315     0:02:56.242     24 146 kbps     32 615 kbps     01:41:31.718    27 795 kbps     01:42:43.423    26 097 kbps     01:41:23.143    100 708 bytes   331 591 bytes   01:41:32.553
23              1:43:51.558     0:02:07.560     25 021 kbps     32 492 kbps     01:45:42.836    30 647 kbps     01:45:42.836    27 683 kbps     01:45:49.109    104 358 bytes   419 491 bytes   01:43:58.498
24              1:45:59.119     0:05:05.438     25 625 kbps     33 586 kbps     01:47:10.323    30 319 kbps     01:48:02.042    29 605 kbps     01:45:59.119    106 880 bytes   322 146 bytes   01:47:15.362
25              1:51:04.557     0:03:48.628     23 165 kbps     32 071 kbps     01:51:17.704    27 129 kbps     01:53:32.205    25 756 kbps     01:53:28.268    96 617 bytes    453 462 bytes   01:52:15.395
26              1:54:53.186     0:04:08.781     23 404 kbps     32 668 kbps     01:55:02.495    28 431 kbps     01:56:26.546    28 332 kbps     01:56:26.245    97 616 bytes    372 889 bytes   01:55:02.662
27              1:59:01.968     0:03:05.285     23 132 kbps     31 494 kbps     02:00:19.212    25 379 kbps     02:01:14.700    24 679 kbps     02:01:09.695    96 478 bytes    365 908 bytes   01:59:51.918
28              2:02:07.253     0:06:14.307     23 954 kbps     33 481 kbps     02:05:06.932    28 412 kbps     02:03:49.021    28 103 kbps     02:03:49.221    99 910 bytes    354 910 bytes   02:02:08.354
29              2:08:21.560     0:04:36.042     23 668 kbps     35 281 kbps     02:09:51.617    29 200 kbps     02:09:51.650    28 228 kbps     02:09:51.583    98 717 bytes    423 713 bytes   02:09:13.512
30              2:12:57.602     0:06:02.962     22 317 kbps     34 571 kbps     02:18:02.140    26 271 kbps     02:18:02.140    24 856 kbps     02:15:44.603    93 079 bytes    312 734 bytes   02:13:22.394
31              2:19:00.565     0:05:55.221     24 456 kbps     30 161 kbps     02:22:08.653    28 484 kbps     02:20:17.342    27 748 kbps     02:20:12.470    102 003 bytes   274 539 bytes   02:22:08.686
32              2:24:55.787     0:04:21.494     24 824 kbps     53 653 kbps     02:29:09.674    30 860 kbps     02:29:06.437    28 426 kbps     02:26:36.854    103 536 bytes   358 036 bytes   02:29:10.574
33              2:29:17.281     0:02:40.026     24 743 kbps     31 218 kbps     02:31:56.307    29 328 kbps     02:31:52.303    27 625 kbps     02:31:47.298    103 199 bytes   273 279 bytes   02:31:18.869
34              2:31:57.308     0:02:41.394     25 445 kbps     30 399 kbps     02:32:07.685    29 558 kbps     02:32:06.584    29 345 kbps     02:32:01.579    106 129 bytes   276 480 bytes   02:34:31.428
35              2:34:38.702     0:05:19.819     25 091 kbps     34 977 kbps     02:39:05.802    31 054 kbps     02:36:27.211    30 599 kbps     02:36:22.940    104 650 bytes   497 312 bytes   02:39:17.347
36              2:39:58.522     0:02:20.306     25 431 kbps     31 528 kbps     02:40:51.174    30 110 kbps     02:41:06.223    29 517 kbps     02:42:00.210    106 070 bytes   331 034 bytes   02:40:13.303
37              2:42:18.829     0:05:17.617     24 993 kbps     52 687 kbps     02:47:35.078    33 159 kbps     02:47:31.274    28 873 kbps     02:42:18.829    104 241 bytes   382 449 bytes   02:47:35.278
38              2:47:36.446     0:05:09.942     21 328 kbps     47 057 kbps     02:47:58.435    29 840 kbps     02:47:54.497    26 532 kbps     02:47:49.492    88 967 bytes    395 620 bytes   02:51:07.390
[br]
STREAM DIAGNOSTICS:
[br]
File            PID             Type            Codec           Language                Seconds                 Bitrate                 Bytes           Packets
----            ---             ----            -----           --------                --------------          --------------          -------------   -----
00008.M2TS      4113 (0x1011)   0x1B            AVC                                     10366,289               23 948                  31 031 257 815  168 984 811
00008.M2TS      4352 (0x1100)   0x86            DTS-HD MA       eng (English)           10366,289               4 085                   5 292 990 004   30 382 595
00008.M2TS      4353 (0x1101)   0x80            LPCM            eng (English)           10366,289               2 310                   2 993 813 432   16 586 224
00008.M2TS      4608 (0x1200)   0x90            PGS             eng (English)           10366,289               24                      31 641 282      180 326
00008.M2TS      4609 (0x1201)   0x90            PGS             fra (French)            10366,289               28                      35 842 862      203 187
00008.M2TS      4610 (0x1202)   0x90            PGS             deu (German)            10366,289               28                      35 665 652      202 219
00008.M2TS      4611 (0x1203)   0x90            PGS             spa (Spanish)           10366,289               26                      33 435 902      190 099
<---- END FORUMS PASTE ---->
QUICK SUMMARY:
Disc Title: Бриттен Бенджамин - Билли Бад (Glyndebourne Opera House) (2010) (Blu-ray 1080i, AVC, DTS-HD 5.1)
Disc Size: 45 704 364 848 bytes
Protection: AACS
BD-Java: No
Playlist: 00002.MPLS
Size: 41 678 739 456 bytes
Length: 2:52:46.389
Total Bitrate: 32,16 Mbps
Video: MPEG-4 AVC Video / 23948 kbps / 1080i / 29,970 fps / 16:9 / High Profile 4.1
Audio: English / DTS-HD Master Audio / 5.1 / 48 kHz / 4085 kbps / 24-bit (DTS Core: 5.1 / 48 kHz / 1509 kbps / 24-bit)
Audio: English / LPCM Audio / 2.0 / 48 kHz / 2304 kbps / 24-bit
Subtitle: English / 24,418 kbps
Subtitle: French / 27,661 kbps
Subtitle: German / 27,524 kbps
Subtitle: Spanish / 25,803 kbps
********************
PLAYLIST: 00004.MPLS
********************
<--- BEGIN FORUMS PASTE --->
Total   Video
Title                                                           Codec   Length  Movie Size      Disc Size       Bitrate Bitrate Main Audio Track                          Secondary Audio Track
-----                                                           ------  ------- --------------  --------------  ------- ------- ------------------                        ---------------------
00004.MPLS                                                      AVC     0:10:49 1 865 138 304   45 704 364 848  22,96   19,93   LPCM 2.0 1536Kbps (48kHz/16-bit)
DISC INFO:
[br]
Disc Title:     Бриттен Бенджамин - Билли Бад (Glyndebourne Opera House) (2010) (Blu-ray 1080i, AVC, DTS-HD 5.1)
Disc Size:      45 704 364 848 bytes
Protection:     AACS
BD-Java:        No
BDInfo:         0.5.8
[br]
PLAYLIST REPORT:
[br]
Name:                   00004.MPLS
Length:                 0:10:49.982 (h:m:s.ms)
Size:                   1 865 138 304 bytes
Total Bitrate:          22,96 Mbps
[br]
VIDEO:
[br]
Codec                   Bitrate             Description
-----                   -------             -----------
MPEG-4 AVC Video        19929 kbps          1080i / 29,970 fps / 16:9 / High Profile 4.1
[br]
AUDIO:
[br]
Codec                           Language        Bitrate         Description
-----                           --------        -------         -----------
LPCM Audio                      English         1536 kbps       2.0 / 48 kHz / 1536 kbps / 16-bit
[br]
SUBTITLES:
[br]
Codec                           Language        Bitrate         Description
-----                           --------        -------         -----------
Presentation Graphics           English         0,000 kbps
Presentation Graphics           French          63,351 kbps
Presentation Graphics           German          69,825 kbps
Presentation Graphics           Spanish         65,537 kbps
[br]
FILES:
[br]
Name            Time In         Length          Size            Total Bitrate
----            -------         ------          ----            -------------
00006.M2TS      0:00:00.000     0:10:49.982     1 865 138 304   22 956
[br]
CHAPTERS:
[br]
Number          Time In         Length          Avg Video Rate  Max 1-Sec Rate  Max 1-Sec Time  Max 5-Sec Rate  Max 5-Sec Time  Max 10Sec Rate  Max 10Sec Time  Avg Frame Size  Max Frame Size  Max Frame Time
------          -------         ------          --------------  --------------  --------------  --------------  --------------  --------------  --------------  --------------  --------------  --------------
1               0:00:00.000     0:10:49.982     19 929 kbps     51 768 kbps     00:00:06.840    29 473 kbps     00:00:33.566    29 268 kbps     00:00:32.766    83 122 bytes    374 135 bytes   00:07:22.208
[br]
STREAM DIAGNOSTICS:
[br]
File            PID             Type            Codec           Language                Seconds                 Bitrate                 Bytes           Packets
----            ---             ----            -----           --------                --------------          --------------          -------------   -----
00006.M2TS      4113 (0x1011)   0x1B            AVC                                     657,590                 19 925                  1 637 820 073   8 922 531
00006.M2TS      4352 (0x1100)   0x80            LPCM            eng (English)           657,590                 1 543                   126 803 596     789 234
00006.M2TS      4608 (0x1200)   0x90            PGS             eng (English)           657,590                 0                       165             8
00006.M2TS      4609 (0x1201)   0x90            PGS             fra (French)            657,590                 63                      5 147 159       29 152
00006.M2TS      4610 (0x1202)   0x90            PGS             deu (German)            657,590                 69                      5 673 115       32 000
00006.M2TS      4611 (0x1203)   0x90            PGS             spa (Spanish)           657,590                 65                      5 324 702       30 122
<---- END FORUMS PASTE ---->
QUICK SUMMARY:
Disc Title: Бриттен Бенджамин - Билли Бад (Glyndebourne Opera House) (2010) (Blu-ray 1080i, AVC, DTS-HD 5.1)
Disc Size: 45 704 364 848 bytes
Protection: AACS
BD-Java: No
Playlist: 00004.MPLS
Size: 1 865 138 304 bytes
Length: 0:10:49.982
Total Bitrate: 22,96 Mbps
Video: MPEG-4 AVC Video / 19929 kbps / 1080i / 29,970 fps / 16:9 / High Profile 4.1
Audio: English / LPCM Audio / 2.0 / 48 kHz / 1536 kbps / 16-bit
Subtitle: English / 0,000 kbps
Subtitle: French / 63,351 kbps
Subtitle: German / 69,825 kbps
Subtitle: Spanish / 65,537 kbps
********************
PLAYLIST: 00005.MPLS
********************
<--- BEGIN FORUMS PASTE --->
Total   Video
Title                                                           Codec   Length  Movie Size      Disc Size       Bitrate Bitrate Main Audio Track                          Secondary Audio Track
-----                                                           ------  ------- --------------  --------------  ------- ------- ------------------                        ---------------------
00005.MPLS                                                      AVC     0:09:03 1 917 549 120   45 704 364 848  28,25   24,96   LPCM 2.0 1536Kbps (48kHz/16-bit)
DISC INFO:
[br]
Disc Title:     Бриттен Бенджамин - Билли Бад (Glyndebourne Opera House) (2010) (Blu-ray 1080i, AVC, DTS-HD 5.1)
Disc Size:      45 704 364 848 bytes
Protection:     AACS
BD-Java:        No
BDInfo:         0.5.8
[br]
PLAYLIST REPORT:
[br]
Name:                   00005.MPLS
Length:                 0:09:03.042 (h:m:s.ms)
Size:                   1 917 549 120 bytes
Total Bitrate:          28,25 Mbps
[br]
VIDEO:
[br]
Codec                   Bitrate             Description
-----                   -------             -----------
MPEG-4 AVC Video        24958 kbps          1080i / 29,970 fps / 16:9 / High Profile 4.1
[br]
AUDIO:
[br]
Codec                           Language        Bitrate         Description
-----                           --------        -------         -----------
LPCM Audio                      English         1536 kbps       2.0 / 48 kHz / 1536 kbps / 16-bit
[br]
SUBTITLES:
[br]
Codec                           Language        Bitrate         Description
-----                           --------        -------         -----------
Presentation Graphics           English         0,000 kbps
Presentation Graphics           French          76,996 kbps
Presentation Graphics           German          86,227 kbps
Presentation Graphics           Spanish         77,491 kbps
[br]
FILES:
[br]
Name            Time In         Length          Size            Total Bitrate
----            -------         ------          ----            -------------
00007.M2TS      0:00:00.000     0:09:03.042     1 917 549 120   28 249
[br]
CHAPTERS:
[br]
Number          Time In         Length          Avg Video Rate  Max 1-Sec Rate  Max 1-Sec Time  Max 5-Sec Rate  Max 5-Sec Time  Max 10Sec Rate  Max 10Sec Time  Avg Frame Size  Max Frame Size  Max Frame Time
------          -------         ------          --------------  --------------  --------------  --------------  --------------  --------------  --------------  --------------  --------------  --------------
1               0:00:00.000     0:09:03.042     24 958 kbps     42 027 kbps     00:01:18.878    35 282 kbps     00:06:47.340    34 589 kbps     00:06:42.969    104 097 bytes   380 246 bytes   00:06:36.963
[br]
STREAM DIAGNOSTICS:
[br]
File            PID             Type            Codec           Language                Seconds                 Bitrate                 Bytes           Packets
----            ---             ----            -----           --------                --------------          --------------          -------------   -----
00007.M2TS      4113 (0x1011)   0x1B            AVC                                     550,483                 24 920                  1 714 778 135   9 337 317
00007.M2TS      4352 (0x1100)   0x80            LPCM            eng (English)           550,483                 1 543                   106 152 788     660 702
00007.M2TS      4608 (0x1200)   0x90            PGS             eng (English)           550,483                 0                       165             8
00007.M2TS      4609 (0x1201)   0x90            PGS             fra (French)            550,483                 76                      5 226 489       29 555
00007.M2TS      4610 (0x1202)   0x90            PGS             deu (German)            550,483                 85                      5 853 148       32 964
00007.M2TS      4611 (0x1203)   0x90            PGS             spa (Spanish)           550,483                 76                      5 260 110       29 743
<---- END FORUMS PASTE ---->
QUICK SUMMARY:
Disc Title: Бриттен Бенджамин - Билли Бад (Glyndebourne Opera House) (2010) (Blu-ray 1080i, AVC, DTS-HD 5.1)
Disc Size: 45 704 364 848 bytes
Protection: AACS
BD-Java: No
Playlist: 00005.MPLS
Size: 1 917 549 120 bytes
Length: 0:09:03.042
Total Bitrate: 28,25 Mbps
Video: MPEG-4 AVC Video / 24958 kbps / 1080i / 29,970 fps / 16:9 / High Profile 4.1
Audio: English / LPCM Audio / 2.0 / 48 kHz / 1536 kbps / 16-bit
Subtitle: English / 0,000 kbps
Subtitle: French / 76,996 kbps
Subtitle: German / 86,227 kbps
Subtitle: Spanish / 77,491 kbps
********************
PLAYLIST: 00003.MPLS
********************
<--- BEGIN FORUMS PASTE --->
Total   Video
Title                                                           Codec   Length  Movie Size      Disc Size       Bitrate Bitrate Main Audio Track                          Secondary Audio Track
-----                                                           ------  ------- --------------  --------------  ------- ------- ------------------                        ---------------------
00003.MPLS                                                      AVC     0:00:47 40 458 240      45 704 364 848  6,78    6,42
DISC INFO:
[br]
Disc Title:     Бриттен Бенджамин - Билли Бад (Glyndebourne Opera House) (2010) (Blu-ray 1080i, AVC, DTS-HD 5.1)
Disc Size:      45 704 364 848 bytes
Protection:     AACS
BD-Java:        No
BDInfo:         0.5.8
[br]
PLAYLIST REPORT:
[br]
Name:                   00003.MPLS
Length:                 0:00:47.714 (h:m:s.ms)
Size:                   40 458 240 bytes
Total Bitrate:          6,78 Mbps
[br]
VIDEO:
[br]
Codec                   Bitrate             Description
-----                   -------             -----------
MPEG-4 AVC Video        6424 kbps           1080i / 29,970 fps / 16:9 / High Profile 4.1
[br]
FILES:
[br]
Name            Time In         Length          Size            Total Bitrate
----            -------         ------          ----            -------------
00005.M2TS      0:00:00.000     0:00:47.714     40 458 240      6 783
[br]
CHAPTERS:
[br]
Number          Time In         Length          Avg Video Rate  Max 1-Sec Rate  Max 1-Sec Time  Max 5-Sec Rate  Max 5-Sec Time  Max 10Sec Rate  Max 10Sec Time  Avg Frame Size  Max Frame Size  Max Frame Time
------          -------         ------          --------------  --------------  --------------  --------------  --------------  --------------  --------------  --------------  --------------  --------------
1               0:00:00.000     0:00:07.006     6 076 kbps      16 631 kbps     00:00:06.005    5 751 kbps      00:00:02.001    0 kbps          00:00:00.000    25 220 bytes    530 986 bytes   00:00:07.006
2               0:00:07.006     0:00:05.004     6 857 kbps      16 593 kbps     00:00:10.977    6 857 kbps      00:00:07.006    0 kbps          00:00:00.000    28 600 bytes    535 597 bytes   00:00:11.010
3               0:00:12.011     0:00:05.005     5 752 kbps      13 633 kbps     00:00:15.982    5 752 kbps      00:00:12.012    0 kbps          00:00:00.000    23 991 bytes    432 690 bytes   00:00:16.015
4               0:00:17.017     0:00:05.004     5 886 kbps      15 115 kbps     00:00:21.021    5 886 kbps      00:00:17.017    0 kbps          00:00:00.000    24 551 bytes    457 515 bytes   00:00:22.022
5               0:00:22.022     0:00:05.004     6 725 kbps      17 189 kbps     00:00:26.026    6 725 kbps      00:00:22.022    0 kbps          00:00:00.000    28 050 bytes    507 474 bytes   00:00:27.027
6               0:00:27.027     0:00:05.004     7 158 kbps      17 975 kbps     00:00:30.997    7 158 kbps      00:00:27.027    0 kbps          00:00:00.000    29 857 bytes    532 275 bytes   00:00:31.030
7               0:00:32.032     0:00:05.004     7 030 kbps      18 094 kbps     00:00:35.935    7 030 kbps      00:00:32.032    0 kbps          00:00:00.000    29 320 bytes    537 514 bytes   00:00:37.037
8               0:00:37.037     0:00:05.004     7 311 kbps      17 839 kbps     00:00:40.940    7 311 kbps      00:00:37.037    0 kbps          00:00:00.000    30 494 bytes    548 456 bytes   00:00:41.041
9               0:00:42.042     0:00:05.672     5 312 kbps      15 848 kbps     00:00:45.645    6 008 kbps      00:00:42.042    0 kbps          00:00:00.000    22 287 bytes    526 069 bytes   00:00:43.043
[br]
STREAM DIAGNOSTICS:
[br]
File            PID             Type            Codec           Language                Seconds                 Bitrate                 Bytes           Packets
----            ---             ----            -----           --------                --------------          --------------          -------------   -----
00005.M2TS      4113 (0x1011)   0x1B            AVC                                     47,648                  6 433                   38 317 397      209 093
<---- END FORUMS PASTE ---->
QUICK SUMMARY:
Disc Title: Бриттен Бенджамин - Билли Бад (Glyndebourne Opera House) (2010) (Blu-ray 1080i, AVC, DTS-HD 5.1)
Disc Size: 45 704 364 848 bytes
Protection: AACS
BD-Java: No
Playlist: 00003.MPLS
Size: 40 458 240 bytes
Length: 0:00:47.714
Total Bitrate: 6,78 Mbps
Video: MPEG-4 AVC Video / 6424 kbps / 1080i / 29,970 fps / 16:9 / High Profile 4.1
Семпл

Скриншоты


Скриншоты доп. материалов





Показать сообщения:    

Текущее время: 06-Дек 17:10

Часовой пояс: UTC + 3


Вы не можете начинать темы
Вы не можете отвечать на сообщения
Вы не можете редактировать свои сообщения
Вы не можете удалять свои сообщения
Вы не можете голосовать в опросах
Вы не можете прикреплять файлы к сообщениям
Вы не можете скачивать файлы