Головой вниз / Свободное падение / Szabadesés / Free Fall (Дёрдь Палфи / György Pálfi) [2014, Венгрия, Южная Корея, Франция, комедия, гротеск, экзистенциальные ужасы, DVDRip-AVC] VO (liosaa) + Sub Rus, Eng + Original Hun


Статистика раздачи [Обновить пиров]
Размер:  1.61 GB   |    Зарегистрирован:  8 месяцев 17 дней   |    Скачан:  1 раз

Полного источника не было: 13 дней

 
   
 
 
 

[Цитировать]

Головой вниз / Свободное падение / Szabadesés / Free Fall
Страна: Венгрия, Южная Корея, Франция
Жанр: комедия, гротеск, экзистенциальные ужасы
Год выпуска: 2014
Продолжительность: 01:19:29
Перевод: Одноголосый закадровый (liosaa)
Cубтитры: русские (liosaa), английские, венгерские
Оригинальная аудиодорожка: венгерский
Режиссер: Дёрдь Палфи / György Pálfi
В ролях: Пирошка Мольнар, Миклош Бенедек, Аттила Менсатор-Хереш, Тамаш Йордан, Гиза Д.Хегедуш...
Описание: ...Пожилая дама с сумкой-тележкой в одной руке и пластиковым пакетом — в другой (вы встречаете таких в метро и у подъезда, десятки раз в день) медленно, но уверенно поднимается по лестнице — последний этаж, чердак, наконец, крыша многоквартирного дома. Чуть отдышавшись, старушка подходит к краю, бросает последний взгляд на вечерний двор и прыгает головой вниз — летит мимо освещенных окон, падает на асфальт… И ничего страшного, кряхтя, поднимается, подбирая разбитые очки -- и тащится за продуктами. С такого пролога начинается самая дикая, самая странная, самая крышесносящая комедия года: если бы вы только знали, что творится в тех квартирах, мимо которых пролетела наша головастая бабуля…
**СЭМПЛ**
**Палфи в переводе **liosaa:
ДАМЫ-ГОСПОДА (2012)

Качество видео: DVDRip-AVC
Формат видео: MKV
Видео: x264, 720x440 ~> 1034x440 (2.35:1), 25.000 fps, 2 000 Kbps
Аудио 1: 48 kHz, AC3 Dolby Digital, 3/2 (L,C,R,l,r) + LFE ch, 448.00 kbps avg (liosaa)
Аудио 2: 48 kHz, AC3 Dolby Digital, 3/2 (L,C,R,l,r) + LFE ch, 448.00 kbps avg (hu)
Формат субтитров: softsub (SRT)

MediaInfo

Формат : Matroska
Версия формата : Version 2
Размер файла : 1,61 Гбайт
Продолжительность : 1 ч. 19 м.
Общий поток : 2899 Кбит/сек
Дата кодирования : UTC 2016-02-16 14:44:29
Программа кодирования : mkvmerge v2.9.8 ('C'est le bon') built on Aug 13 2009 12:49:06
Библиотека кодирования : Lavf55.12.0
Видео
Идентификатор : 1
Формат : AVC
Формат/Информация : Advanced Video Codec
Профиль формата : High@L3.1
Параметр CABAC формата : Да
Параметр ReFrames формата : 12 кадров
Идентификатор кодека : V_MPEG4/ISO/AVC
Продолжительность : 1 ч. 19 м.
Битрейт : 2000 Кбит/сек
Ширина : 720 пикселей
Высота : 440 пикселей
Соотношение сторон : 2,35:1
Режим частоты кадров : Постоянный
Частота кадров : 25,000 кадров/сек
Цветовое пространство : YUV
Субдискретизация насыщенности : 4:2:0
Битовая глубина : 8 бит
Тип развёртки : Прогрессивная
Бит/(Пиксели*Кадры) : 0.253
Размер потока : 1,08 Гбайт (67%)
Библиотека кодирования : x264 core 142 r2479 dd79a61
Настройки программы : cabac=1 / ref=12 / deblock=1:-3:-3 / analyse=0x3:0x133 / me=umh / subme=11 / psy=1 / psy_rd=1.00:0.00 / mixed_ref=1 / me_range=64 / chroma_me=1 / trellis=2 / 8x8dct=1 / cqm=0 / deadzone=21,11 / fast_pskip=0 / chroma_qp_offset=-2 / threads=6 / lookahead_threads=1 / sliced_threads=0 / nr=0 / decimate=1 / interlaced=0 / bluray_compat=0 / constrained_intra=0 / bframes=10 / b_pyramid=2 / b_adapt=2 / b_bias=0 / direct=3 / weightb=1 / open_gop=0 / weightp=2 / keyint=250 / keyint_min=25 / scenecut=40 / intra_refresh=0 / rc_lookahead=100 / rc=2pass / mbtree=1 / bitrate=2000 / ratetol=1.0 / qcomp=0.60 / qpmin=0 / qpmax=69 / qpstep=4 / cplxblur=20.0 / qblur=0.5 / ip_ratio=1.40 / aq=1:1.00
Default : Нет
Forced : Нет
Основные цвета : BT.601 PAL
Характеристики трансфера : BT.709
Коэффициенты матрицы : BT.601
Аудио #1
Идентификатор : 2
Формат : AC-3
Формат/Информация : Audio Coding 3
Расширение режима : CM (complete main)
Параметр Endianness формата : Big
Идентификатор кодека : A_AC3
Продолжительность : 1 ч. 19 м.
Вид битрейта : Постоянный
Битрейт : 448 Кбит/сек
Каналы : 6 каналов
Расположение каналов : Front: L C R, Side: L R, LFE
Частота : 48,0 КГц
Битовая глубина : 16 бит
Метод сжатия : С потерями
Задержка видео : -80 мс.
Размер потока : 255 Мбайт (15%)
Заголовок : Закадровый 5.1 *liosaa*
Язык : Hungarian
Default : Да
Forced : Нет
Аудио #2
Идентификатор : 3
Формат : AC-3
Формат/Информация : Audio Coding 3
Расширение режима : CM (complete main)
Параметр Endianness формата : Big
Идентификатор кодека : A_AC3
Продолжительность : 1 ч. 19 м.
Вид битрейта : Постоянный
Битрейт : 448 Кбит/сек
Каналы : 6 каналов
Расположение каналов : Front: L C R, Side: L R, LFE
Частота : 48,0 КГц
Битовая глубина : 16 бит
Метод сжатия : С потерями
Размер потока : 255 Мбайт (15%)
Заголовок : Original 5.1
Язык : Hungarian
Default : Нет
Forced : Нет
Текст #1
Идентификатор : 4
Формат : UTF-8
Идентификатор кодека : S_TEXT/UTF8
Идентификатор кодека/Информация : UTF-8 Plain Text
Заголовок : *liosaa*
Язык : Hungarian
Default : Нет
Forced : Нет
Текст #2
Идентификатор : 5
Формат : UTF-8
Идентификатор кодека : S_TEXT/UTF8
Идентификатор кодека/Информация : UTF-8 Plain Text
Язык : English
Default : Нет
Forced : Нет
Текст #3
Идентификатор : 6
Формат : VobSub
Режим смешивания : zlib
Идентификатор кодека : S_VOBSUB
Идентификатор кодека/Информация : The same subtitle format used on DVDs
Язык : Hungarian
Default : Нет
Forced : Нет
Меню
00:00:00.000 : :Chapter 1
00:08:46.760 : :Chapter 2
00:20:23.240 : :Chapter 3
00:27:04.040 : :Chapter 4
00:37:42.920 : :Chapter 5
00:42:21.800 : :Chapter 6
00:50:56.840 : :Chapter 7
01:03:12.200 : :Chapter 8
01:13:20.360 : :Chapter 9
01:16:40.040 : :Chapter 10

Скриншоты

[teatrix.ru].t23010.torrent 
Торрент: Зарегистрирован [ 2016-03-21 00:34 ] · 23870C9C7AD1F900F8DDBF861E63E1C7372D18FA

Скачать .torrent

Скачать

17 KB

Статус: проверено
Скачан: 1 раз
Размер: 1.61 GB
terms.php



Быстрый ответ

Имя:

      
Для отправки сообщений необходимо включить JavaScript
Показать сообщения:    

Текущее время: 07-Дек 11:37

Часовой пояс: UTC + 3


Вы можете начинать темы
Вы можете отвечать на сообщения
Вы не можете редактировать свои сообщения
Вы не можете удалять свои сообщения
Вы не можете голосовать в опросах
Вы не можете прикреплять файлы к сообщениям
Вы можете скачивать файлы