(Classical) Eugene Ysaye - Sonatas for Solo Violin - Алина Ибрагимова (Alina Ibragimova) - 2015, FLAC (image+.cue) lossless


 

[Цитировать]

Eugène Ysaÿe - Sonatas for Solo Violin - Алина Ибрагимова (Alina Ibragimova)
Жанр: Classical
Страна-производитель диска: UK
Год издания диска: 2015
Издатель (лейбл): Hyperion
Номер по каталогу: CDA67993
Дата записи: 2014
Аудиокодек: FLAC
Тип рипа: image+.cue
Битрейт аудио: lossless
Продолжительность: 67:44
Источник: собственный рип
Наличие сканов в содержимом раздачи: да
Треклист:
Eugène Ysaÿe (1858-1931)
Six Sonatas for Solo Violin, Op.27
[1]-[4] Sonata for Solo Violin No.1 in G minor
[5]-[8] Sonata for Solo Violin No.2 in A minor
[9] Sonata for Solo Violin No.3 in D minor 'Ballade'
[10]-[12] Sonata for Solo Violin No.4 in E minor
[13]-[14] Sonata for Solo Violin No.5 in G major
[15] Sonata for Solo Violin No.6 in E major
Исполнители:
Alina Ibragimova violin

Лог создания рипа

Exact Audio Copy V1.1 from 23. June 2015
EAC extraction logfile from 13. February 2016, 19:38
Alina Ibragimova / Ysaÿe - Sonatas for Solo Violin
Used drive : HL-DT-STDVDRAM GU70N Adapter: 1 ID: 0
Read mode : Secure
Utilize accurate stream : Yes
Defeat audio cache : Yes
Make use of C2 pointers : No
Read offset correction : 48
Overread into Lead-In and Lead-Out : No
Fill up missing offset samples with silence : Yes
Delete leading and trailing silent blocks : No
Null samples used in CRC calculations : Yes
Used interface : Native Win32 interface for Win NT & 2000
Used output format : User Defined Encoder
Selected bitrate : 128 kBit/s
Quality : High
Add ID3 tag : No
Command line compressor : C:\Program Files (x86)\Exact Audio Copy\Flac\flac.exe
Additional command line options : -V -8 -T "Date=%year%" -T "Genre=%genre%" %source%
TOC of the extracted CD
Track | Start | Length | Start sector | End sector
---------------------------------------------------------
1 | 0:00.00 | 5:49.15 | 0 | 26189
2 | 5:49.15 | 4:43.05 | 26190 | 47419
3 | 10:32.20 | 4:39.03 | 47420 | 68347
4 | 15:11.23 | 2:58.56 | 68348 | 81753
5 | 18:10.04 | 2:21.56 | 81754 | 92384
6 | 20:31.60 | 3:06.08 | 92385 | 106342
7 | 23:37.68 | 4:22.40 | 106343 | 126032
8 | 28:00.33 | 3:11.46 | 126033 | 140403
9 | 31:12.04 | 7:45.43 | 140404 | 175321
10 | 38:57.47 | 5:17.24 | 175322 | 199120
11 | 44:14.71 | 3:22.31 | 199121 | 214301
12 | 47:37.27 | 2:48.20 | 214302 | 226921
13 | 50:25.47 | 4:31.30 | 226922 | 247276
14 | 54:57.02 | 5:22.53 | 247277 | 271479
15 | 60:19.55 | 7:22.46 | 271480 | 304675
Range status and errors
Selected range
Filename C:\temp\CDA67993 - Ysaye - Sonatas for Solo Violin\Ysaye - Sonatas for Solo Violin.wav
Peak level 97.5 %
Extraction speed 5.1 X
Range quality 99.9 %
Test CRC EAB8D76D
Copy CRC EAB8D76D
Copy OK
No errors occurred
AccurateRip summary
Track 1 accurately ripped (confidence 11) [57D4CEDF] (AR v2)
Track 2 accurately ripped (confidence 11) [4D963627] (AR v2)
Track 3 accurately ripped (confidence 11) [643840CB] (AR v2)
Track 4 accurately ripped (confidence 11) [74FB0376] (AR v2)
Track 5 accurately ripped (confidence 11) [8A673B2C] (AR v2)
Track 6 accurately ripped (confidence 11) [21DFB2A6] (AR v2)
Track 7 accurately ripped (confidence 11) [A79F2B2D] (AR v2)
Track 8 accurately ripped (confidence 11) [B9E2A989] (AR v2)
Track 9 accurately ripped (confidence 11) [A2BEBFE8] (AR v2)
Track 10 accurately ripped (confidence 11) [D122DD03] (AR v2)
Track 11 accurately ripped (confidence 11) [264A9EA7] (AR v2)
Track 12 accurately ripped (confidence 11) [A1A8941C] (AR v2)
Track 13 accurately ripped (confidence 11) [BA1DA31C] (AR v2)
Track 14 accurately ripped (confidence 11) [6F85F3C2] (AR v2)
Track 15 accurately ripped (confidence 11) [5A28A639] (AR v2)
All tracks accurately ripped
End of status report
==== Log checksum C20C353B2C6E48C39178A913C41880F6B53DC66971AF28DF5F634CA31C8A6129 ====



Показать сообщения:    

Текущее время: 20-Янв 14:53

Часовой пояс: UTC + 3


Вы не можете начинать темы
Вы не можете отвечать на сообщения
Вы не можете редактировать свои сообщения
Вы не можете удалять свои сообщения
Вы не можете голосовать в опросах
Вы не можете прикреплять файлы к сообщениям
Вы не можете скачивать файлы