Юбилейный вечер "Без галстуков" [2014 г., юбилейный капустник, WEB-DLRip] Иркутская областная филармония


Статистика раздачи [Обновить пиров]
Размер:  2.18 GB   |    Зарегистрирован:  8 месяцев 17 дней   |    Скачан:  0 раз

Полного источника не было: Никогда

 
   
 
 
 

[Цитировать]

Юбилейный вечер "Без галстуков" Название театра: Иркутская областная филармония.
Год выпуска: 2014.
Жанр: юбилейный капустник.
Продолжительность: 02:33:03.
О спектакле:
В 2014 году Иркутская областная филармония отметила свой 75-летний юбилей.
21 ноября прошел юбилейный вечер «Без галстуков». Филармонию с 75-летием в этот вечер поздравили артисты Филармонии (в первом отделении состоялся концерт творческих коллективов), а также коллеги – музыкальный колледж им. Ф. Шопена, Иркутской театральное училище, колледж культуры, художественное училище, музей «Тальцы», Музыкальный театр им. Н. М. Загурского, Драматический театр им. Н. Охлопкова, Театр юного зрителя им. А. Вампилова, Театр Пилигримы. Много творческих подарков, теплых слов и пожеланий прозвучало в этот вечер.

Дополнительная информация:
Страна: Россия .

Релиз
Рип sharky.

Качество видео:...WEB-DLRip
Формат:.................AVI
Видео:..704x400 (1.76:1), 25 fps, XviD build 50 ~1904 kbps avg, 0.27 bit/pixel
Аудио:..44.100 kHz, MPEG Layer 3, 2 ch, ~128.00 kbps avg

Отчет MI

Общее
Полное имя : Yubilejnyj.vecher.Bez.galstukov_Irkutskaya.oblastnaya.filarmoniya.2014.XviD.WEB-DLRip.fenixclub.avi
Format : AVI
Format/Info : Audio Video Interleave
Format profile : OpenDML
File size : 2.18 GiB
Duration : 2h 33mn
Overall bit rate : 2 040 Kbps
Writing application : VirtualDubMod 1.5.10.3 | www.virtualdub-fr.org || (build 2550/release)
Writing library : VirtualDubMod build 2550/release
Video
ID : 0
Format : MPEG-4 Visual
Format profile : Advanced Simple@L5
Format settings, BVOP : 1
Format settings, QPel : No
Format settings, GMC : No warppoints
Format settings, Matrix : Default (H.263)
Codec ID : XVID
Codec ID/Hint : XviD
Duration : 2h 33mn
Bit rate : 1 899 Kbps
Width : 704 pixels
Height : 400 pixels
Display aspect ratio : 16:9
Frame rate : 25.000 fps
Color space : YUV
Chroma subsampling : 4:2:0
Bit depth : 8 bits
Scan type : Progressive
Compression mode : Lossy
Bits/(Pixel*Frame) : 0.270
Stream size : 2.03 GiB (93%)
Writing library : XviD 1.2.1 (UTC 2008-12-04)
Audio
ID : 1
Format : MPEG Audio
Format version : Version 1
Format profile : Layer 3
Codec ID : 55
Codec ID/Hint : MP3
Duration : 2h 33mn
Bit rate mode : Constant
Bit rate : 128 Kbps
Channel(s) : 2 channels
Sampling rate : 44.1 KHz
Compression mode : Lossy
Stream size : 140 MiB (6%)
Alignment : Split accross interleaves
Interleave, duration : 40 ms (1.00 video frame)
Interleave, preload duratio : 500 ms
Writing library : LAME3.99r
Encoding settings : -m s -V 4 -q 2 -lowpass 17 -b 128

Скриншот с названием постановки

Скриншоты


Альтернативный хост


[teatrix.ru].t23012.torrent 
Торрент: Зарегистрирован [ 2016-03-21 00:34 ] · 5E35E4B64ED466CB0FCDF5322866695B22368FFC

Скачать .torrent

Скачать

11 KB

Статус: проверено
Скачан: 0 раз
Размер: 2.18 GB
terms.php



Быстрый ответ

Имя:

      
Для отправки сообщений необходимо включить JavaScript
Показать сообщения:    

Текущее время: 07-Дек 11:39

Часовой пояс: UTC + 3


Вы можете начинать темы
Вы можете отвечать на сообщения
Вы не можете редактировать свои сообщения
Вы не можете удалять свои сообщения
Вы не можете голосовать в опросах
Вы не можете прикреплять файлы к сообщениям
Вы можете скачивать файлы