Дзюкай - лес самоубийц / Jukai, la foret des suicides (Габриэль Лиссо / Gabrielle Lissot) [2016, Франция, концептуальная драма, 3D анимация, сюрреализм, короткий метр, HDTV 1080i]


 

[Цитировать]

Дзюкай - лес самоубийц
Jukai, la forêt des suicides- Страна: Франция
Студия: Autour de Minuit
Жанр: концептуальная драма, 3D анимация, сюрреализм, короткий метр
Год выпуска: 2016
Продолжительность: 00:09:17
Перевод: Не требуется
Cубтитры: нет
Оригинальная аудиодорожка: музыкальное сопровождение
Режиссер: Габриэль Лиссо / Gabrielle Lissot
В ролях: музыкальное сопровождениеОписание: Аокигахара, также известный как Дзюкай – это лес у подножья горы Фудзи на японском острове Хонсю. Аокигахара является своего рода печальной достопримечательностью Японии. Это место называют "Лесом самоубийц". В XIX веке бедные японские семьи привозили и оставляли в этом лесу на верную погибель своих стариков и детей, которых не могли прокормить. Аокигахара является популярным местом самоубийств среди жителей Токио и окрестностей и считается вторым по популярности местом в мире для сведения счётов с жизнью.
Молодая женщина по путеводной нити идет по темному и мрачному лесу в надежде развеять свои опасения….
Доп. информация: Hot Bird (13.0°E) ARTE Français HD DVB-S2
Награда: включен в шорт-лист в категории "Лучшая анимационная короткометражка" на 18-м Конкурсе молодых кинокритиков Festival international du court-métrage de Clermont-Ferrand 2016.

Тип релиза: HDTV 1080i
Контейнер: TS
Видео: AVC (H.264), 1920х1080 (16:9), 25 fps, ~4250 kbps avg, 8 bit
Аудио: AC3, 2 ch, 48 kHz, 256 kbps

MediaInfo

Общее
Идентификатор : 1 (0x1)
Полное имя : [apreder]MM_Jukai_la_foret_des_suicides(2016)HDTV.1080i.ts
Формат : MPEG-TS
Размер файла : 316 Мбайт
Продолжительность : 9 м. 17 с.
Режим общего битрейта : Переменный
Общий поток : 4749 Кбит/сек
Максимальный общий битрейт : 35,5 Мбит/сек
Видео
Идентификатор : 4113 (0x1011)
Идентификатор меню : 1 (0x1)
Формат : AVC
Формат/Информация : Advanced Video Codec
Профиль формата : High@L4
Параметр CABAC формата : Да
Параметр ReFrames формата : 4 кадра
Идентификатор кодека : 27
Продолжительность : 9 м. 17 с.
Вид битрейта : Переменный
Битрейт : 4256 Кбит/сек
Максимальный битрейт : 40,0 Мбит/сек
Ширина : 1920 пикселей
Высота : 1080 пикселей
Соотношение сторон : 16:9
Частота кадров : 25,000 кадров/сек
Стандарт вещания : Component
Цветовое пространство : YUV
Субдискретизация насыщенности : 4:2:0
Битовая глубина : 8 бит
Тип развёртки : MBAFF
Порядок развёртки : Верхнее поле первое
Бит/(Пиксели*Кадры) : 0.082
Размер потока : 283 Мбайт (90%)
colour_range : Limited
Основные цвета : BT.601 PAL
Характеристики трансфера : BT.470 System B, BT.470 System G
Коэффициенты матрицы : BT.601
Аудио
Идентификатор : 4352 (0x1100)
Идентификатор меню : 1 (0x1)
Формат : AC-3
Формат/Информация : Audio Coding 3
Расширение режима : CM (complete main)
Параметр Endianness формата : Big
Идентификатор кодека : 129
Продолжительность : 9 м. 17 с.
Вид битрейта : Постоянный
Битрейт : 256 Кбит/сек
Каналы : 2 канала
Расположение каналов : Front: L R
Частота : 48,0 КГц
Частота кадров : 31,250 кадров/сек (1536 spf)
Метод сжатия : С потерями
Размер потока : 17,0 Мбайт (5%)

Скриншоты

Резервные скриншоты

-



Показать сообщения:    

Текущее время: 11-Дек 12:55

Часовой пояс: UTC + 3


Вы не можете начинать темы
Вы не можете отвечать на сообщения
Вы не можете редактировать свои сообщения
Вы не можете удалять свои сообщения
Вы не можете голосовать в опросах
Вы не можете прикреплять файлы к сообщениям
Вы не можете скачивать файлы