(Vocal / Вокал) Фёдор Шаляпин/Feodor Chaliapin - Russian Opera Arias (Мусоргский, Глинка, Даргомыжский, Рубинштейн, Бородин, Римский-Корсаков, Рахманинов) - 1987, FLAC (tracks+.cue) lossless


 

[Цитировать]

Фёдор Шаляпин/Feodor Chaliapin - Russian Opera Arias
Жанр: Vocal / Вокал
Страна-производитель диска: UK
Год издания диска: 1987
Издатель (лейбл): EMI
Номер по каталогу: CDH 7 61009 2
EAN: 5099976100925
Аудиокодек: FLAC
Тип рипа: tracks+.cue
Битрейт аудио: lossless
Продолжительность: 69:31
Источник: собственный рип
Наличие сканов в содержимом раздачи: да
Треклист:
MOUSSORGSKY, Boris Godounov
1. Prologue. Coronation scene (7:48)
2. Boris' monologue, Act II (5:03)
3. Clock scene, Act II (4:03)
4. Farewell, prayer and death of Boris, Act IV (12:01)
GLINKA, A Life For The Tzar
5. Susanin's aria, Act IV (4:38)
GLINKA, Ruslan and Lyudmila
6. Farlaf's rondo, Act II (3:01)
7. Ruslan's aria, Act II (3:02)
DARGOMIJSKI, Rusalka
8. Song of the miller, Act I (3:52)
9. Mad scene and death of the miller, Act III (9:12)
RUBINSTEIN, The Demon
10. Demon's aria, Act II (3:10)
BORODINE, Prince Igor
11. Khan Konchak's aria, Act II (4:47)
RIMSKY-KORSAKOV, Sadko
12. Song of the Viking guest, Act IV (3:37)
RACMANINOV, Aleko
13. Aleko's aria, Act II (4:43)
Исполнители:
Feodor Chaliapin (bass), G. Pozemkovsky (tenor), Paris Russian Opera Chorus (choir, chorus), Royal Opera House Covent Garden Chorus (choir, chorus)

Лог создания рипа

Exact Audio Copy V1.0 beta 6 from 9. April 2015
EAC extraction logfile from 18. February 2016, 19:31
Feodor Chaliapin / Russian Opera Arias
Used drive : Optiarc DVD RW AD-7200S Adapter: 1 ID: 1
Read mode : Secure
Utilize accurate stream : Yes
Defeat audio cache : Yes
Make use of C2 pointers : No
Read offset correction : 48
Overread into Lead-In and Lead-Out : No
Fill up missing offset samples with silence : Yes
Delete leading and trailing silent blocks : No
Null samples used in CRC calculations : Yes
Used interface : Native Win32 interface for Win NT & 2000
Gap handling : Appended to previous track
Used output format : User Defined Encoder
Selected bitrate : 1024 kBit/s
Quality : High
Add ID3 tag : No
Command line compressor : C:\Program Files (x86)\Exact Audio Copy\Flac\flac.exe
Additional command line options : -V -8 -T "Artist=%artist%" -T "Album=%albumtitle%" -T "Tracknumber=%Tracknr%" -T "Title=%title%" -T "Date=%year%" -T "Genre=%genre%" %source%
TOC of the extracted CD
Track | Start | Length | Start sector | End sector
---------------------------------------------------------
1 | 0:00.33 | 7:51.45 | 33 | 35402
2 | 7:52.03 | 5:06.00 | 35403 | 58352
3 | 12:58.03 | 4:06.00 | 58353 | 76802
4 | 17:04.03 | 12:04.00 | 76803 | 131102
5 | 29:08.03 | 4:41.00 | 131103 | 152177
6 | 33:49.03 | 3:04.02 | 152178 | 165979
7 | 36:53.05 | 3:03.73 | 165980 | 179777
8 | 39:57.03 | 3:54.00 | 179778 | 197327
9 | 43:51.03 | 9:15.02 | 197328 | 238954
10 | 53:06.05 | 3:12.73 | 238955 | 253427
11 | 56:19.03 | 4:50.02 | 253428 | 275179
12 | 61:09.05 | 3:38.73 | 275180 | 291602
13 | 64:48.03 | 4:43.57 | 291603 | 312884
Track 1
Filename D:\Feodor Chaliapin\(1987) Russian Opera Arias\Feodor Chaliapin - Russian Opera Arias - 01. Moussorgsky - Boris Goudonov - Prologue - Coronation scene.wav
Pre-gap length 0:00:02.33
Peak level 99.1 %
Extraction speed 2.8 X
Track quality 100.0 %
Test CRC D3018D3B
Copy CRC D3018D3B
Accurately ripped (confidence 11) [B9D92B3F] (AR v2)
Copy OK
Track 2
Filename D:\Feodor Chaliapin\(1987) Russian Opera Arias\Feodor Chaliapin - Russian Opera Arias - 02. Moussorgsky - Boris Goudonov - Act II - Boris' Monologue.wav
Pre-gap length 0:00:03.08
Peak level 91.3 %
Extraction speed 3.0 X
Track quality 100.0 %
Test CRC 8075AF5C
Copy CRC 8075AF5C
Accurately ripped (confidence 10) [4707CD33] (AR v2)
Copy OK
Track 3
Filename D:\Feodor Chaliapin\(1987) Russian Opera Arias\Feodor Chaliapin - Russian Opera Arias - 03. Moussorgsky - Boris Goudonov - Act II - Clock scene.wav
Pre-gap length 0:00:02.73
Peak level 88.6 %
Extraction speed 2.8 X
Track quality 99.9 %
Test CRC B35BCB80
Copy CRC B35BCB80
Accurately ripped (confidence 10) [CE33D146] (AR v2)
Copy OK
Track 4
Filename D:\Feodor Chaliapin\(1987) Russian Opera Arias\Feodor Chaliapin - Russian Opera Arias - 04. Moussorgsky - Boris Goudonov - Act IV - Farewell, prayer and death of Boris.wav
Pre-gap length 0:00:02.70
Peak level 85.1 %
Extraction speed 3.9 X
Track quality 100.0 %
Test CRC 1C3A6FD1
Copy CRC 1C3A6FD1
Accurately ripped (confidence 11) [77B5F982] (AR v2)
Copy OK
Track 5
Filename D:\Feodor Chaliapin\(1987) Russian Opera Arias\Feodor Chaliapin - Russian Opera Arias - 05. Glinka - A life for the Tsar - Act IV - Susanin's.wav
Pre-gap length 0:00:02.28
Peak level 76.3 %
Extraction speed 4.0 X
Track quality 100.0 %
Test CRC 90F5F7DD
Copy CRC 90F5F7DD
Accurately ripped (confidence 11) [EEB07ECB] (AR v2)
Copy OK
Track 6
Filename D:\Feodor Chaliapin\(1987) Russian Opera Arias\Feodor Chaliapin - Russian Opera Arias - 06. Glinka - Rousslan and Ludmilla - Act II - Farlaf's rondo.wav
Pre-gap length 0:00:03.10
Peak level 89.7 %
Extraction speed 3.9 X
Track quality 100.0 %
Test CRC 07A000C9
Copy CRC 07A000C9
Accurately ripped (confidence 11) [9B12983B] (AR v2)
Copy OK
Track 7
Filename D:\Feodor Chaliapin\(1987) Russian Opera Arias\Feodor Chaliapin - Russian Opera Arias - 07. Glinka - Rousslan and Ludmilla - Act II - Ruslan's aria.wav
Pre-gap length 0:00:02.22
Peak level 66.0 %
Extraction speed 4.0 X
Track quality 100.0 %
Test CRC B6E45D8D
Copy CRC B6E45D8D
Accurately ripped (confidence 11) [FB5DA5D9] (AR v2)
Copy OK
Track 8
Filename D:\Feodor Chaliapin\(1987) Russian Opera Arias\Feodor Chaliapin - Russian Opera Arias - 08. Dargomijski - Rusalka - Act I - Song of the miller.wav
Pre-gap length 0:00:01.68
Peak level 93.7 %
Extraction speed 4.2 X
Track quality 100.0 %
Test CRC 140C5AE4
Copy CRC 140C5AE4
Accurately ripped (confidence 11) [4835B082] (AR v2)
Copy OK
Track 9
Filename D:\Feodor Chaliapin\(1987) Russian Opera Arias\Feodor Chaliapin - Russian Opera Arias - 09. Dargomijski - Rusalka - Act III - Mad scene and death of the miller.wav
Pre-gap length 0:00:01.68
Peak level 81.5 %
Extraction speed 4.9 X
Track quality 100.0 %
Test CRC 269ECDFE
Copy CRC 269ECDFE
Accurately ripped (confidence 10) [E52481B0] (AR v2)
Copy OK
Track 10
Filename D:\Feodor Chaliapin\(1987) Russian Opera Arias\Feodor Chaliapin - Russian Opera Arias - 10. Rubinstein - The Demon - Act II - Demon's aria.wav
Pre-gap length 0:00:02.55
Peak level 80.3 %
Extraction speed 4.6 X
Track quality 100.0 %
Test CRC C8F1E8F5
Copy CRC C8F1E8F5
Accurately ripped (confidence 10) [5E9B0D84] (AR v2)
Copy OK
Track 11
Filename D:\Feodor Chaliapin\(1987) Russian Opera Arias\Feodor Chaliapin - Russian Opera Arias - 11. Borodin - Prince Igor - Act II - Khan Konchak's aria.wav
Pre-gap length 0:00:02.25
Peak level 95.6 %
Extraction speed 4.9 X
Track quality 100.0 %
Test CRC C94A1237
Copy CRC C94A1237
Accurately ripped (confidence 10) [56B8CED5] (AR v2)
Copy OK
Track 12
Filename D:\Feodor Chaliapin\(1987) Russian Opera Arias\Feodor Chaliapin - Russian Opera Arias - 12. Rimsky-Korsakov - Sadko - Act IV - Song of the Viking guest.wav
Pre-gap length 0:00:02.55
Peak level 94.1 %
Extraction speed 4.9 X
Track quality 100.0 %
Test CRC C12EDE24
Copy CRC C12EDE24
Accurately ripped (confidence 10) [47B70DF8] (AR v2)
Copy OK
Track 13
Filename D:\Feodor Chaliapin\(1987) Russian Opera Arias\Feodor Chaliapin - Russian Opera Arias - 13. Rachmaninov - Aleko - Act II - Aleko's aria.wav
Pre-gap length 0:00:02.08
Peak level 73.3 %
Extraction speed 5.2 X
Track quality 100.0 %
Test CRC F08D2C14
Copy CRC F08D2C14
Accurately ripped (confidence 10) [0B612566] (AR v2)
Copy OK
All tracks accurately ripped
No errors occurred
End of status report
==== Log checksum DFB79C395CC06E74D1E44BA3A72FA64F823E626FB23120E8B0D91C95CEE20C67 ====

Содержание индексной карты (.CUE)

REM GENRE Classical
REM DATE 1987
REM DISCID B3104B0D
REM COMMENT "ExactAudioCopy v1.0b6"
CATALOG 0000000000000
PERFORMER "Feodor Chaliapin"
TITLE "Russian Opera Arias"
FILE "Feodor Chaliapin - Russian Opera Arias - 01. Moussorgsky - Boris Goudonov - Prologue - Coronation scene.wav" WAVE
TRACK 01 AUDIO
TITLE "Moussorgsky - Boris Goudonov - Prologue: Coronation scene"
PERFORMER "Feodor Chaliapin"
PREGAP 00:00:33
INDEX 01 00:00:00
TRACK 02 AUDIO
TITLE "Moussorgsky - Boris Goudonov - Act II: Boris' Monologue"
PERFORMER "Feodor Chaliapin"
INDEX 00 07:48:37
FILE "Feodor Chaliapin - Russian Opera Arias - 02. Moussorgsky - Boris Goudonov - Act II - Boris' Monologue.wav" WAVE
INDEX 01 00:00:00
TRACK 03 AUDIO
TITLE "Moussorgsky - Boris Goudonov - Act II: Clock scene"
PERFORMER "Feodor Chaliapin"
INDEX 00 05:03:02
FILE "Feodor Chaliapin - Russian Opera Arias - 03. Moussorgsky - Boris Goudonov - Act II - Glock scene.wav" WAVE
INDEX 01 00:00:00
TRACK 04 AUDIO
TITLE "Moussorgsky - Boris Goudonov - Act IV: Farewell, prayer and death of Boris"
PERFORMER "Feodor Chaliapin"
INDEX 00 04:03:05
FILE "Feodor Chaliapin - Russian Opera Arias - 04. Moussorgsky - Boris Goudonov - Act IV - Farewell, prayer and death of Boris.wav" WAVE
INDEX 01 00:00:00
TRACK 05 AUDIO
TITLE "Glinka - A life for the Tsar - Act IV: Susanin's"
PERFORMER "Feodor Chaliapin"
INDEX 00 12:01:47
FILE "Feodor Chaliapin - Russian Opera Arias - 05. Glinka - A life for the Tsar - Act IV - Susanin's.wav" WAVE
INDEX 01 00:00:00
TRACK 06 AUDIO
TITLE "Glinka - Rousslan and Ludmilla - Act II: Farlaf's rondo"
PERFORMER "Feodor Chaliapin"
INDEX 00 04:37:65
FILE "Feodor Chaliapin - Russian Opera Arias - 06. Glinka - Rousslan and Ludmilla - Act II - Farlaf's rondo.wav" WAVE
INDEX 01 00:00:00
TRACK 07 AUDIO
TITLE "Glinka - Rousslan and Ludmilla - Act II: Ruslan's aria"
PERFORMER "Feodor Chaliapin"
INDEX 00 03:01:55
FILE "Feodor Chaliapin - Russian Opera Arias - 07. Glinka - Rousslan and Ludmilla - Act II - Ruslan's aria.wav" WAVE
INDEX 01 00:00:00
TRACK 08 AUDIO
TITLE "Dargomijski - Rusalka - Act I: Song of the miller"
PERFORMER "Feodor Chaliapin"
INDEX 00 03:02:05
FILE "Feodor Chaliapin - Russian Opera Arias - 08. Dargomijski - Rusalka - Act I - Song of the miller.wav" WAVE
INDEX 01 00:00:00
TRACK 09 AUDIO
TITLE "Dargomijski - Rusalka - Act III: Mad scene and death of the miller"
PERFORMER "Feodor Chaliapin"
INDEX 00 03:52:07
FILE "Feodor Chaliapin - Russian Opera Arias - 09. Dargomijski - Rusalka - Act III - Mad scene and death of the miller.wav" WAVE
INDEX 01 00:00:00
TRACK 10 AUDIO
TITLE "Rubinstein - The Demon - Act II: Demon's aria"
PERFORMER "Feodor Chaliapin"
INDEX 00 09:12:22
FILE "Feodor Chaliapin - Russian Opera Arias - 10. Rubinstein - The Demon - Act II - Demon's aria.wav" WAVE
INDEX 01 00:00:00
TRACK 11 AUDIO
TITLE "Borodin - Prince Igor - Act II: Khan Konchak's aria"
PERFORMER "Feodor Chaliapin"
INDEX 00 03:10:48
FILE "Feodor Chaliapin - Russian Opera Arias - 11. Borodin - Prince Igor - Act II - Khan Konchak's aria.wav" WAVE
INDEX 01 00:00:00
TRACK 12 AUDIO
TITLE "Rimsky-Korsakov - Sadko - Act IV: Song of the Viking guest"
PERFORMER "Feodor Chaliapin"
INDEX 00 04:47:22
FILE "Feodor Chaliapin - Russian Opera Arias - 12. Rimsky-Korsakov - Sadko - Act IV - Song of the Viking guest.wav" WAVE
INDEX 01 00:00:00
TRACK 13 AUDIO
TITLE "Rachmaninov - Aleko - Act II: Aleko's aria"
PERFORMER "Feodor Chaliapin"
INDEX 00 03:36:65
FILE "Feodor Chaliapin - Russian Opera Arias - 13. Rachmaninov - Aleko - Act II - Aleko's aria.wav" WAVE
INDEX 01 00:00:00



Показать сообщения:    

Текущее время: 03-Дек 16:45

Часовой пояс: UTC + 3


Вы не можете начинать темы
Вы не можете отвечать на сообщения
Вы не можете редактировать свои сообщения
Вы не можете удалять свои сообщения
Вы не можете голосовать в опросах
Вы не можете прикреплять файлы к сообщениям
Вы не можете скачивать файлы