Джузеппе Верди - Трубадур / Giuseppe Verdi - Il Trovatore (Ludovic Tezier, Marcelo Alvarez, Hui He, Екатерина Семенчук / Ekaterina Semenchuk) (Daniele Callegari / Alex Olle) [2016, Opera, HDTVRip-AVC 720p] Sub [Eng, Fre, Ger, Ita, Swe.]


 

[Цитировать]

-Opéra national de Paris (season 15/16) present
Giuseppe Fortunino Francesco Verdi
October 10, 1813 — January 27, 1901
»« Il Trovatore »«
Opera in four parts (1853)
Libretto Salvatore Cammarano (After Antonio García Gutiérrez)
--

Год записи: 2016
Лейбл: FRA Cinema
Страна: France
Жанр: Live Broadcast, Opera
Язык: Итальянский
ПЕРЕВОД: Субтитры
Субтитры/Subtitles: Eng, Fre, Ger, Ita, Swe
Продолжительность: 01:09:00 + 01:19:00 + 00:10:41 (doc.)
Общая продолжительность: 02:38:41
Il CONTE di LUNA · Ludovic Tézier
LEONORA · Hui He
AZUCENA · Ekaterina Semenchuk
MANRICO · Marcelo Alvarez
FERRANDO · Roberto Tagliavini
INES · Marion Lebègue
Chorus & Orchestra Opéra national de Paris
ДИРИЖЁР · Daniele Callegari
РЕЖИССЁР · Alex Ollé
Coproduction with De Nationale Opera, Amsterdam

Качество видео: HDTVRip-AVC
Исходник: FHD [Спасибо, Opera146]
Контейнер: MKV
Аудио кодек: AC3
Видео поток: H.264, 1280x720, Variable, 25,000 fps.
Аудио поток: Italian, 448 kbps, 48,0 KHz, 16 bit, 6 ch

Тех. данныеPart1x264.log


avs [info]: 1280x720p 1:1 @ 25/1 fps (cfr)
x264 [info]: using SAR=1/1
x264 [info]: using cpu capabilities: MMX2 SSE2Fast LZCNT
x264 [info]: profile High, level 4.1
x264 [info]: frame I:553 Avg QP:16.24 size: 60099
x264 [info]: frame P:21213 Avg QP:18.27 size: 18535
x264 [info]: frame B:82847 Avg QP:21.88 size: 4582
x264 [info]: consecutive B-frames: 0.6% 0.4% 2.5% 27.7% 34.9% 23.3% 4.5% 3.1% 2.4% 0.6% 0.1%
x264 [info]: mb I I16..4: 13.1% 68.3% 18.5%
x264 [info]: mb P I16..4: 0.7% 3.3% 0.6% P16..4: 34.2% 35.2% 8.2% 0.0% 0.0% skip:17.7%
x264 [info]: mb B I16..4: 0.0% 0.2% 0.0% B16..8: 32.7% 10.3% 1.0% direct: 1.6% skip:54.1% L0:41.7% L1:50.2% BI: 8.1%
x264 [info]: 8x8 transform intra:71.1% inter:61.1%
x264 [info]: coded y,uvDC,uvAC intra: 61.9% 57.7% 32.8% inter: 6.0% 6.2% 0.7%
x264 [info]: i16 v,h,dc,p: 46% 19% 8% 26%
x264 [info]: i8 v,h,dc,ddl,ddr,vr,hd,vl,hu: 8% 5% 20% 9% 11% 12% 11% 11% 12%
x264 [info]: i4 v,h,dc,ddl,ddr,vr,hd,vl,hu: 14% 7% 10% 9% 13% 13% 10% 11% 12%
x264 [info]: i8c dc,h,v,p: 26% 41% 21% 12%
x264 [info]: Weighted P-Frames: Y:4.3% UV:2.6%
x264 [info]: ref P L0: 46.7% 6.7% 18.3% 7.5% 5.9% 5.2% 4.4% 2.7% 2.5% 0.2% 0.0%
x264 [info]: ref B L0: 76.1% 11.2% 5.5% 2.4% 1.9% 1.6% 1.0% 0.4%
x264 [info]: ref B L1: 92.8% 7.2%
x264 [info]: kb/s:1541.04
-
General
Unique ID : 186090119334154217458242456429138053529 (0x8BFFA73FD99BB440A50D4C6AECD08999)
Complete name : Verdi - Il Trovatore (Paris, 2016)\Il Trovatore (Paris, 2016) Pt1.mkv
Format : Matroska
Format version : Version 4 / Version 2
File size : 993 MiB
Duration : 1h 9mn
Overall bit rate : 1 991 Kbps
Encoded date : UTC 2016-02-17 17:13:28
Writing application : mkvmerge v8.3.0 ('Over the Horizon') 32bit
Writing library : libebml v1.3.1 + libmatroska v1.4.2
Video
ID : 1
Format : AVC
Format/Info : Advanced Video Codec
Format profile : High@L4.1
Format settings, CABAC : Yes
Format settings, ReFrames : 9 frames
Codec ID : V_MPEG4/ISO/AVC
Duration : 1h 9mn
Bit rate : 1 503 Kbps
Width : 1 280 pixels
Height : 720 pixels
Display aspect ratio : 16:9
Frame rate mode : Constant
Frame rate : 25.000 fps
Color space : YUV
Chroma subsampling : 4:2:0
Bit depth : 8 bits
Scan type : Progressive
Bits/(Pixel*Frame) : 0.065
Stream size : 750 MiB (76%)
Writing library : x264 core 146 r2538 121396c
Encoding settings : cabac=1 / ref=9 / deblock=1:-3:-3 / analyse=0x3:0x113 / me=umh / subme=11 / psy=1 / psy_rd=1.05:0.15 / mixed_ref=1 / me_range=32 / chroma_me=1 / trellis=2 / 8x8dct=1 / cqm=0 / deadzone=21,11 / fast_pskip=1 / chroma_qp_offset=-3 / threads=3 / lookahead_threads=1 / sliced_threads=0 / nr=0 / decimate=1 / interlaced=0 / bluray_compat=0 / constrained_intra=0 / bframes=10 / b_pyramid=2 / b_adapt=2 / b_bias=0 / direct=1 / weightb=1 / open_gop=0 / weightp=2 / keyint=250 / keyint_min=25 / scenecut=40 / intra_refresh=0 / rc=crf / mbtree=0 / crf=21.0 / qcomp=0.65 / qpmin=0 / qpmax=69 / qpstep=4 / ip_ratio=1.40 / pb_ratio=1.30 / aq=1:0.90
Language : English
Default : Yes
Forced : No
Audio
ID : 2
Format : AC-3
Format/Info : Audio Coding 3
Mode extension : CM (complete main)
Format settings, Endianness : Big
Codec ID : A_AC3
Duration : 1h 9mn
Bit rate mode : Constant
Bit rate : 448 Kbps
Channel(s) : 6 channels
Channel positions : Front: L C R, Side: L R, LFE
Sampling rate : 48.0 KHz
Compression mode : Lossy
Stream size : 223 MiB (23%)
Language : Italian
Default : Yes
Forced : No
Text #1
ID : 3
Format : UTF-8
Codec ID : S_TEXT/UTF8
Codec ID/Info : UTF-8 Plain Text
Language : English
Default : Yes
Forced : No
Text #2
ID : 4
Format : UTF-8
Codec ID : S_TEXT/UTF8
Codec ID/Info : UTF-8 Plain Text
Language : French
Default : No
Forced : No
Text #3
ID : 5
Format : UTF-8
Codec ID : S_TEXT/UTF8
Codec ID/Info : UTF-8 Plain Text
Language : German
Default : No
Forced : No
Text #4
ID : 6
Format : UTF-8
Codec ID : S_TEXT/UTF8
Codec ID/Info : UTF-8 Plain Text
Language : Italian
Default : No
Forced : No
Text #5
ID : 7
Format : UTF-8
Codec ID : S_TEXT/UTF8
Codec ID/Info : UTF-8 Plain Text
Language : Swedish
Default : No
Forced : No

Part2x264.log


avs [info]: 1280x720p 1:1 @ 25/1 fps (cfr)
x264 [info]: using SAR=1/1
x264 [info]: using cpu capabilities: MMX2 SSE2Fast SSSE3 SSE4.2 AVX
x264 [info]: profile High, level 4.1
x264 [info]: frame I:657 Avg QP:16.10 size: 57691
x264 [info]: frame P:25289 Avg QP:18.25 size: 18812
x264 [info]: frame B:93029 Avg QP:21.81 size: 4695
x264 [info]: consecutive B-frames: 0.9% 0.7% 4.4% 32.7% 32.0% 19.8% 3.9% 4.1% 1.4% 0.2%
x264 [info]: mb I I16..4: 12.2% 69.8% 18.0%
x264 [info]: mb P I16..4: 0.7% 4.6% 0.8% P16..4: 32.8% 33.5% 7.7% 0.0% 0.0% skip:20.0%
x264 [info]: mb B I16..4: 0.0% 0.4% 0.0% B16..8: 32.3% 10.0% 1.0% direct: 1.6% skip:54.7% L0:41.4% L1:49.7% BI: 8.9%
x264 [info]: 8x8 transform intra:75.3% inter:62.1%
x264 [info]: coded y,uvDC,uvAC intra: 64.7% 52.8% 22.6% inter: 6.6% 5.0% 0.2%
x264 [info]: i16 v,h,dc,p: 49% 17% 8% 25%
x264 [info]: i8 v,h,dc,ddl,ddr,vr,hd,vl,hu: 8% 5% 20% 9% 12% 13% 11% 12% 11%
x264 [info]: i4 v,h,dc,ddl,ddr,vr,hd,vl,hu: 13% 6% 12% 10% 13% 13% 11% 11% 12%
x264 [info]: i8c dc,h,v,p: 24% 42% 20% 14%
x264 [info]: Weighted P-Frames: Y:6.9% UV:3.2%
x264 [info]: ref P L0: 46.6% 7.2% 17.8% 7.5% 5.8% 5.3% 4.3% 2.7% 2.4% 0.3% 0.0%
x264 [info]: ref B L0: 75.5% 11.1% 5.7% 2.5% 2.0% 1.7% 1.1% 0.4%
x264 [info]: ref B L1: 92.6% 7.4%
x264 [info]: kb/s:1597.64
-
General
Unique ID : 189864400113657166474994883010870735899 (0x8ED68DA8AFBC127F8B877716ABED741B)
Complete name : Verdi - Il Trovatore (Paris, 2016)\Il Trovatore (Paris, 2016) Pt2.mkv
Format : Matroska
Format version : Version 4 / Version 2
File size : 1.13 GiB
Duration : 1h 19mn
Overall bit rate : 2 048 Kbps
Encoded date : UTC 2016-02-17 14:05:43
Writing application : mkvmerge v8.3.0 ('Over the Horizon') 32bit
Writing library : libebml v1.3.1 + libmatroska v1.4.2
Video
ID : 1
Format : AVC
Format/Info : Advanced Video Codec
Format profile : High@L4.1
Format settings, CABAC : Yes
Format settings, ReFrames : 9 frames
Codec ID : V_MPEG4/ISO/AVC
Duration : 1h 19mn
Bit rate : 1 559 Kbps
Width : 1 280 pixels
Height : 720 pixels
Display aspect ratio : 16:9
Frame rate mode : Constant
Frame rate : 25.000 fps
Color space : YUV
Chroma subsampling : 4:2:0
Bit depth : 8 bits
Scan type : Progressive
Bits/(Pixel*Frame) : 0.068
Stream size : 884 MiB (76%)
Writing library : x264 core 146 r2538 121396c
Encoding settings : cabac=1 / ref=9 / deblock=1:-3:-3 / analyse=0x3:0x113 / me=umh / subme=11 / psy=1 / psy_rd=1.05:0.15 / mixed_ref=1 / me_range=32 / chroma_me=1 / trellis=2 / 8x8dct=1 / cqm=0 / deadzone=21,11 / fast_pskip=1 / chroma_qp_offset=-3 / threads=3 / lookahead_threads=1 / sliced_threads=0 / nr=0 / decimate=1 / interlaced=0 / bluray_compat=0 / constrained_intra=0 / bframes=9 / b_pyramid=2 / b_adapt=2 / b_bias=0 / direct=1 / weightb=1 / open_gop=0 / weightp=2 / keyint=250 / keyint_min=25 / scenecut=40 / intra_refresh=0 / rc=crf / mbtree=0 / crf=21.0 / qcomp=0.65 / qpmin=0 / qpmax=69 / qpstep=4 / ip_ratio=1.40 / pb_ratio=1.30 / aq=1:0.90
Language : English
Default : Yes
Forced : No
Audio
ID : 2
Format : AC-3
Format/Info : Audio Coding 3
Mode extension : CM (complete main)
Format settings, Endianness : Big
Codec ID : A_AC3
Duration : 1h 19mn
Bit rate mode : Constant
Bit rate : 448 Kbps
Channel(s) : 6 channels
Channel positions : Front: L C R, Side: L R, LFE
Sampling rate : 48.0 KHz
Compression mode : Lossy
Delay relative to video : 23ms
Stream size : 254 MiB (22%)
Language : Italian
Default : Yes
Forced : No
Text #1
ID : 3
Format : UTF-8
Codec ID : S_TEXT/UTF8
Codec ID/Info : UTF-8 Plain Text
Language : English
Default : Yes
Forced : No
Text #2
ID : 4
Format : UTF-8
Codec ID : S_TEXT/UTF8
Codec ID/Info : UTF-8 Plain Text
Language : French
Default : No
Forced : No
Text #3
ID : 5
Format : UTF-8
Codec ID : S_TEXT/UTF8
Codec ID/Info : UTF-8 Plain Text
Language : German
Default : No
Forced : No
Text #4
ID : 6
Format : UTF-8
Codec ID : S_TEXT/UTF8
Codec ID/Info : UTF-8 Plain Text
Language : Italian
Default : No
Forced : No
Text #5
ID : 7
Format : UTF-8
Codec ID : S_TEXT/UTF8
Codec ID/Info : UTF-8 Plain Text
Language : Swedish
Default : No
Forced : No

Documentary -

Тех. данныеx264.log


avs [info]: 1280x720p 1:1 @ 25/1 fps (cfr)
x264 [info]: using SAR=1/1
x264 [info]: using cpu capabilities: MMX2 SSE2Fast SSSE3 SSE4.2 AVX
x264 [info]: profile High, level 4.1
x264 [info]: frame I:81 Avg QP:16.27 size:101158
x264 [info]: frame P:3570 Avg QP:17.74 size: 27817
x264 [info]: frame B:12385 Avg QP:21.39 size: 8233
x264 [info]: consecutive B-frames: 0.8% 0.6% 5.6% 41.8% 27.0% 21.1% 3.1%
x264 [info]: mb I I16..4: 6.3% 65.7% 28.0%
x264 [info]: mb P I16..4: 0.9% 5.3% 0.9% P16..4: 34.2% 34.5% 11.2% 0.0% 0.0% skip:13.0%
x264 [info]: mb B I16..4: 0.2% 0.6% 0.1% B16..8: 33.4% 15.4% 2.1% direct: 3.1% skip:45.1% L0:42.0% L1:44.8% BI:13.1%
x264 [info]: 8x8 transform intra:71.8% inter:53.0%
x264 [info]: coded y,uvDC,uvAC intra: 68.8% 73.7% 50.9% inter: 11.3% 9.6% 1.6%
x264 [info]: i16 v,h,dc,p: 70% 10% 7% 13%
x264 [info]: i8 v,h,dc,ddl,ddr,vr,hd,vl,hu: 10% 7% 17% 8% 12% 12% 11% 11% 11%
x264 [info]: i4 v,h,dc,ddl,ddr,vr,hd,vl,hu: 16% 7% 13% 8% 13% 13% 11% 10% 10%
x264 [info]: i8c dc,h,v,p: 39% 28% 19% 14%
x264 [info]: Weighted P-Frames: Y:0.4% UV:0.3%
x264 [info]: ref P L0: 43.0% 8.2% 19.7% 7.2% 7.0% 5.4% 5.5% 3.5% 0.3% 0.0%
x264 [info]: ref B L0: 72.6% 12.8% 5.9% 3.4% 2.5% 1.7% 1.0%
x264 [info]: ref B L1: 93.4% 6.6%
x264 [info]: kb/s:2612.48
-
General
Unique ID : 232286650502698048252007373874154809074 (0xAEC0C8162E58D34FBD44C83CCC0DA6F2)
Complete name : Verdi - Il Trovatore (Paris, 2016)\Il Trovatore (Paris, 2016) Intro.mkv
Format : Matroska
Format version : Version 4 / Version 2
File size : 234 MiB
Duration : 10mn 41s
Overall bit rate : 3 063 Kbps
Encoded date : UTC 2016-02-17 14:57:21
Writing application : mkvmerge v8.3.0 ('Over the Horizon') 32bit
Writing library : libebml v1.3.1 + libmatroska v1.4.2
Video
ID : 1
Format : AVC
Format/Info : Advanced Video Codec
Format profile : High@L4.1
Format settings, CABAC : Yes
Format settings, ReFrames : 8 frames
Codec ID : V_MPEG4/ISO/AVC
Duration : 10mn 41s
Bit rate : 2 554 Kbps
Width : 1 280 pixels
Height : 720 pixels
Display aspect ratio : 16:9
Frame rate mode : Constant
Frame rate : 25.000 fps
Color space : YUV
Chroma subsampling : 4:2:0
Bit depth : 8 bits
Scan type : Progressive
Bits/(Pixel*Frame) : 0.111
Stream size : 195 MiB (83%)
Writing library : x264 core 146 r2538 121396c
Encoding settings : cabac=1 / ref=8 / deblock=1:-3:-3 / analyse=0x3:0x113 / me=umh / subme=11 / psy=1 / psy_rd=1.05:0.15 / mixed_ref=1 / me_range=32 / chroma_me=1 / trellis=2 / 8x8dct=1 / cqm=0 / deadzone=21,11 / fast_pskip=1 / chroma_qp_offset=-3 / threads=3 / lookahead_threads=1 / sliced_threads=0 / nr=0 / decimate=1 / interlaced=0 / bluray_compat=0 / constrained_intra=0 / bframes=6 / b_pyramid=2 / b_adapt=2 / b_bias=0 / direct=1 / weightb=1 / open_gop=0 / weightp=2 / keyint=250 / keyint_min=25 / scenecut=40 / intra_refresh=0 / rc=crf / mbtree=0 / crf=19.0 / qcomp=0.65 / qpmin=0 / qpmax=69 / qpstep=4 / ip_ratio=1.40 / pb_ratio=1.30 / aq=1:0.90
Language : English
Default : Yes
Forced : No
Audio
ID : 2
Format : AC-3
Format/Info : Audio Coding 3
Mode extension : CM (complete main)
Format settings, Endianness : Big
Codec ID : A_AC3
Duration : 10mn 41s
Bit rate mode : Constant
Bit rate : 448 Kbps
Channel(s) : 6 channels
Channel positions : Front: L C R, Side: L R, LFE
Sampling rate : 48.0 KHz
Compression mode : Lossy
Stream size : 34.3 MiB (15%)
Language : French
Default : Yes
Forced : No
Text #1
ID : 3
Format : UTF-8
Codec ID : S_TEXT/UTF8
Codec ID/Info : UTF-8 Plain Text
Language : English
Default : Yes
Forced : No
Text #2
ID : 4
Format : UTF-8
Codec ID : S_TEXT/UTF8
Codec ID/Info : UTF-8 Plain Text
Language : French
Default : No
Forced : No
Text #3
ID : 5
Format : UTF-8
Codec ID : S_TEXT/UTF8
Codec ID/Info : UTF-8 Plain Text
Language : German
Default : No
Forced : No
Text #4
ID : 6
Format : UTF-8
Codec ID : S_TEXT/UTF8
Codec ID/Info : UTF-8 Plain Text
Language : Italian
Default : No
Forced : No
Text #5
ID : 7
Format : UTF-8
Codec ID : S_TEXT/UTF8
Codec ID/Info : UTF-8 Plain Text
Language : Swedish
Default : No
Forced : No



Показать сообщения:    

Текущее время: 11-Дек 14:57

Часовой пояс: UTC + 3


Вы не можете начинать темы
Вы не можете отвечать на сообщения
Вы не можете редактировать свои сообщения
Вы не можете удалять свои сообщения
Вы не можете голосовать в опросах
Вы не можете прикреплять файлы к сообщениям
Вы не можете скачивать файлы