(Classical) Lei Liang - Verge; Tremors of a Memory Chord; Aural Hypothesis; Five Seasons - Palimpsest Ensemble, Steven Schick, Callithumpian Consort, Stephen Drury, Wu Man, Shanghai Quartet - 2012, FLAC (image+.cue) lossless


 

[Цитировать]

Lei Liang - Verge; Tremors of a Memory Chord; Aural Hypothesis; Five Seasons - Palimpsest Ensemble, Steven Schick, Callithumpian Consort, Stephen Drury, Wu Man, Shanghai Quartet
Жанр: Classical
Год издания диска: 2012
Издатель (лейбл): Naxos
Номер по каталогу: 8.572839
Дата записи: 2011, 2012
Аудиокодек: FLAC
Тип рипа: image+.cue
Битрейт аудио: lossless
Продолжительность: 55:47
Источник: собственный рип
Наличие сканов в содержимом раздачи: да
Треклист:
Lei Liang (b.1972)
[1] Verge
for 18 solo strings (2009) 1
[2] Aural Hypothesis
for flute, clarinet, violin, cello, piano and vibraphone (2010) 2
[3] Five Seasons
for pipa and string quartet (2010) 3
[4] Tremors of a Memory Chord
for piano and grand Chinese orchestra (2011) 4
Исполнители:
Palimpsest Ensemble 1Steven Schick 1
Callithumpian Consort 2Stephen Drury 2
Wu Man pipa 3Shanghai Quartet 3
Pi-hsien Chen piano 4
Taipei Chinese Orchestra 4En Shao 4

Лог создания рипа

Exact Audio Copy V1.0 beta 3 from 29. August 2011
EAC extraction logfile from 2. June 2015, 20:20
- / Lei Liang - Verge; Tremors of a Memory Chord
Used drive : HL-DT-STDVDRAM GU70N Adapter: 0 ID: 0
Read mode : Secure
Utilize accurate stream : Yes
Defeat audio cache : Yes
Make use of C2 pointers : No
Read offset correction : 48
Overread into Lead-In and Lead-Out : No
Fill up missing offset samples with silence : Yes
Delete leading and trailing silent blocks : No
Null samples used in CRC calculations : Yes
Used interface : Native Win32 interface for Win NT & 2000
Used output format : User Defined Encoder
Selected bitrate : 128 kBit/s
Quality : High
Add ID3 tag : No
Command line compressor : C:\Program Files (x86)\Exact Audio Copy\Flac\flac.exe
Additional command line options : -V -8 -T "Date=%year%" -T "Genre=%genre%" %source%
TOC of the extracted CD
Track | Start | Length | Start sector | End sector
---------------------------------------------------------
1 | 0:00.00 | 10:40.72 | 0 | 48071
2 | 10:40.72 | 9:43.38 | 48072 | 91834
3 | 20:24.35 | 17:25.52 | 91835 | 170261
4 | 37:50.12 | 17:54.63 | 170262 | 250874
Range status and errors
Selected range
Filename C:\temp\Naxos_8.572839 - Lei Liang - Verge; Tremors of a Memory Chord\Lei Liang - Verge; Tremors of a Memory Chord.wav
Peak level 96.5 %
Extraction speed 5.0 X
Range quality 100.0 %
Test CRC E6C56E04
Copy CRC E6C56E04
Copy OK
No errors occurred
AccurateRip summary
Track 1 not present in database
Track 2 not present in database
Track 3 not present in database
Track 4 not present in database
None of the tracks are present in the AccurateRip database
End of status report
==== Log checksum 364A1D216E8C51351430F89F5DF9CF12864B698398CCD4697D4B6F9E2C35CF94 ====



Показать сообщения:    

Текущее время: 07-Дек 00:53

Часовой пояс: UTC + 3


Вы не можете начинать темы
Вы не можете отвечать на сообщения
Вы не можете редактировать свои сообщения
Вы не можете удалять свои сообщения
Вы не можете голосовать в опросах
Вы не можете прикреплять файлы к сообщениям
Вы не можете скачивать файлы