Поезда под пристальным наблюдением / Ostre sledovane vlaky / Closely Watched Trains (Иржи Менцель / Jiri Menzel) [1966, Чехословакия, драма, комедия, военный, HDRip] MVO (Петербург 5-й канал) + AVO (Алексеев) + Sub (Cze, Eng) + Original (Cze)


 

[Цитировать]

Поезда под пристальным наблюдением / Ostre sledovane vlaky
Страна: Чехословакия
Жанр: драма, комедия, военный
Год выпуска: 1966
Продолжительность: 01:32:47
Перевод 1: Профессиональный (многоголосый закадровый) Петербург 5-й канал
Перевод 2: Авторский (одноголосый закадровый) Алексеев Антон
Cубтитры: чешские, английские
Оригинальная аудиодорожка: чешский
Режиссер: Иржи Менцель / Jiri Menzel
В ролях: Вацлав Некар, Йозеф Шомр, Властимил Бродский, Владимир Валента, Алоис Вачек, Фердинанд Крута, Йитка Скоффин, Итка Зеленогорска, Надя Урбанкова, Либуше Гавелкова, Квета Фиалова, Павла Маршалкова, Милада Ежкова, Зузана Минихова
Описание: 1944 год. Оккупированная фашистами Чехословакия. На маленькой железнодорожной станции начинает работать молодой паренек Милош Хрма. Новичок пытается во всем равняться на диспетчера Губичку, у которого и на работе все в порядке и на сердечном фронте: редкая дама не попадает в объятия Губички. Милош же влюблен в кондуктора Машу. Но пока разгораются любовные страсти, Восточный фронт становится все ближе и ближе. Партизаны дают о себе знать все чаще и чаще, и немецкое командование отдает приказ взять под особое наблюдение все поезда, идущие в сторону фронта…
Доп. информация:
Качество видео: HDRip | keastwood/BDRip 720p
Формат видео: AVI
Видео: 720x528 (1.36:1), 24.000 fps, XviD build 73 ~1951 kbps avg, 0.21 bit/pixel
Аудио 1: 48 kHz, AC3 Dolby Digital, 1/0 (C) ch, ~96 kbps 5-й канал
Аудио 2: 48 kHz, AC3 Dolby Digital, 1/0 (C) ch, ~96 kbps Алексеев
Аудио 3: 48 kHz, AC3 Dolby Digital, 1/0 (C) ch, ~96 kbps оригинал
Формат субтитров: softsub (SRT)

MediaInfo

General
Complete name : C:\Ostre.sledovane.vlaky.1966.HDRip.MVO.AVO.Cze_by_LBS.avi
Format : AVI
Format/Info : Audio Video Interleave
File size : 1.46 GiB
Duration : 1h 32mn
Overall bit rate : 2 259 Kbps
Director : Last Boy Scout
Writing application : VirtualDubMod 1.5.10.3 | www.virtualdub-fr.org || (build 2550/release)
Copyright : rutracker.org 18.02.2016
Comment : HDRip MVO (Петербург 5-й канал) + AVO (Алексеев) + Original (Cze)
Video
ID : 0
Format : MPEG-4 Visual
Format profile : Advanced Simple@L5
Format settings, BVOP : 1
Format settings, QPel : No
Format settings, GMC : No warppoints
Format settings, Matrix : Custom
Codec ID : XVID
Codec ID/Hint : XviD
Duration : 1h 32mn
Bit rate : 1 953 Kbps
Width : 720 pixels
Height : 528 pixels
Display aspect ratio : 4:3
Frame rate : 24.000 fps
Color space : YUV
Chroma subsampling : 4:2:0
Bit depth : 8 bits
Scan type : Progressive
Compression mode : Lossy
Bits/(Pixel*Frame) : 0.214
Stream size : 1.27 GiB (86%)
Writing library : XviD 73
Audio #1
ID : 1
Format : AC-3
Format/Info : Audio Coding 3
Mode extension : CM (complete main)
Format settings, Endianness : Big
Codec ID : 2000
Duration : 1h 32mn
Bit rate mode : Constant
Bit rate : 96.0 Kbps
Channel(s) : 1 channel
Channel positions : Front: C
Sampling rate : 48.0 KHz
Bit depth : 16 bits
Compression mode : Lossy
Stream size : 63.7 MiB (4%)
Alignment : Split accross interleaves
Interleave, duration : 42 ms (1.00 video frame)
Interleave, preload duration : 500 ms
Audio #2
ID : 2
Format : AC-3
Format/Info : Audio Coding 3
Mode extension : CM (complete main)
Format settings, Endianness : Big
Codec ID : 2000
Duration : 1h 32mn
Bit rate mode : Constant
Bit rate : 96.0 Kbps
Channel(s) : 1 channel
Channel positions : Front: C
Sampling rate : 48.0 KHz
Bit depth : 16 bits
Compression mode : Lossy
Stream size : 63.7 MiB (4%)
Alignment : Split accross interleaves
Interleave, duration : 42 ms (1.00 video frame)
Interleave, preload duration : 500 ms
Audio #3
ID : 3
Format : AC-3
Format/Info : Audio Coding 3
Mode extension : CM (complete main)
Format settings, Endianness : Big
Codec ID : 2000
Duration : 1h 32mn
Bit rate mode : Constant
Bit rate : 96.0 Kbps
Channel(s) : 1 channel
Channel positions : Front: C
Sampling rate : 48.0 KHz
Bit depth : 16 bits
Compression mode : Lossy
Stream size : 63.7 MiB (4%)
Alignment : Split accross interleaves
Interleave, duration : 42 ms (1.00 video frame)
Interleave, preload duration : 500 ms

Скриншоты




Показать сообщения:    

Текущее время: 03-Дек 09:49

Часовой пояс: UTC + 3


Вы не можете начинать темы
Вы не можете отвечать на сообщения
Вы не можете редактировать свои сообщения
Вы не можете удалять свои сообщения
Вы не можете голосовать в опросах
Вы не можете прикреплять файлы к сообщениям
Вы не можете скачивать файлы