(Classical) Arcangelo Corelli - Violin Sonatas, Opus 5 - The Avison Ensemble - 2013, FLAC (image+.cue) lossless


 

[Цитировать]

Arcangelo Corelli - Violin Sonatas, Opus 5 - The Avison Ensemble
Жанр: Classical
Страна-производитель диска: UK
Год издания диска: 2013
Издатель (лейбл): Linn Records
Номер по каталогу: CKD 412
Дата записи: 2012
Аудиокодек: FLAC
Тип рипа: image+.cue
Битрейт аудио: lossless
Продолжительность: 2:13:29
Источник: собственный рип
Наличие сканов в содержимом раздачи: да
Треклист:
Arcangelo Corelli
Violin Sonatas, Opus 5

CD1

[1]-[5] Sonata in D major, No.1
[6]-[10] Sonata in B flat major, No.2
[11]-[15] Sonata in C major, No.3
[16]-[20] Sonata in F major, No.4
[21]-[25] Sonata in G minor, No.5
[26]-[30] Sonata in A major, No.6

CD2

[1]-[4] Sonata in D minor, No.7
[5]-[8] Sonata in E minor, No.8
[9]-[12] Sonata in A major, No.9
[13]-[17] Sonata in F major, No.10
[18]-[22] Sonata in E major, No.11
[23]-[29] Sonata in D minor, No.12, 'Folia'
Исполнители:
The Avison Ensemble
Pavlo Beznosiuk violin
Richard Tunnicliffe cello
Paula Chateauneuf archlute, guitar
Roger Hamilton organ, harpsichord

Лог создания рипа: CD1

Exact Audio Copy V1.1 from 23. June 2015
EAC extraction logfile from 13. February 2016, 2:50
The Avison Ensemble / Corelli - Opus 5. Violin Sonatas - CD1
Used drive : HL-DT-STDVDRAM GU70N Adapter: 1 ID: 0
Read mode : Secure
Utilize accurate stream : Yes
Defeat audio cache : Yes
Make use of C2 pointers : No
Read offset correction : 48
Overread into Lead-In and Lead-Out : No
Fill up missing offset samples with silence : Yes
Delete leading and trailing silent blocks : No
Null samples used in CRC calculations : Yes
Used interface : Native Win32 interface for Win NT & 2000
Used output format : User Defined Encoder
Selected bitrate : 128 kBit/s
Quality : High
Add ID3 tag : No
Command line compressor : C:\Program Files (x86)\Exact Audio Copy\Flac\flac.exe
Additional command line options : -V -8 -T "Date=%year%" -T "Genre=%genre%" %source%
TOC of the extracted CD
Track | Start | Length | Start sector | End sector
---------------------------------------------------------
1 | 0:00.00 | 3:00.46 | 0 | 13545
2 | 3:00.46 | 2:32.01 | 13546 | 24946
3 | 5:32.47 | 1:02.72 | 24947 | 29668
4 | 6:35.44 | 2:40.23 | 29669 | 41691
5 | 9:15.67 | 1:53.14 | 41692 | 50180
6 | 11:09.06 | 2:14.59 | 50181 | 60289
7 | 13:23.65 | 2:21.70 | 60290 | 70934
8 | 15:45.60 | 1:24.36 | 70935 | 77270
9 | 17:10.21 | 2:30.28 | 77271 | 88548
10 | 19:40.49 | 1:26.12 | 88549 | 95010
11 | 21:06.61 | 2:24.64 | 95011 | 105874
12 | 23:31.50 | 2:08.06 | 105875 | 115480
13 | 25:39.56 | 2:48.23 | 115481 | 128103
14 | 28:28.04 | 1:00.55 | 128104 | 132658
15 | 29:28.59 | 2:41.44 | 132659 | 144777
16 | 32:10.28 | 1:58.60 | 144778 | 153687
17 | 34:09.13 | 2:26.72 | 153688 | 164709
18 | 36:36.10 | 1:12.58 | 164710 | 170167
19 | 37:48.68 | 2:06.50 | 170168 | 179667
20 | 39:55.43 | 2:37.67 | 179668 | 191509
21 | 42:33.35 | 2:46.02 | 191510 | 203961
22 | 45:19.37 | 2:01.44 | 203962 | 213080
23 | 47:21.06 | 2:04.02 | 213081 | 222382
24 | 49:25.08 | 1:37.74 | 222383 | 229731
25 | 51:03.07 | 1:50.74 | 229732 | 238055
26 | 52:54.06 | 2:43.22 | 238056 | 250302
27 | 55:37.28 | 2:14.01 | 250303 | 260353
28 | 57:51.29 | 0:56.52 | 260354 | 264605
29 | 58:48.06 | 2:01.06 | 264606 | 273686
30 | 60:49.12 | 2:15.23 | 273687 | 283834
Range status and errors
Selected range
Filename C:\temp\Corelli - Opus 5. Violin Sonatas\CD1\Corelli - Opus 5. Violin Sonatas - CD1.wav
Peak level 76.3 %
Extraction speed 2.2 X
Range quality 99.9 %
Test CRC CF57389F
Copy CRC CF57389F
Copy OK
No errors occurred
AccurateRip summary
Track 1 accurately ripped (confidence 8) [44016D27] (AR v2)
Track 2 accurately ripped (confidence 8) [9E5416B6] (AR v2)
Track 3 accurately ripped (confidence 8) [EAB9584C] (AR v2)
Track 4 accurately ripped (confidence 8) [EA9CB393] (AR v2)
Track 5 accurately ripped (confidence 8) [C604C592] (AR v2)
Track 6 accurately ripped (confidence 8) [2EA7D90B] (AR v2)
Track 7 accurately ripped (confidence 8) [D1CFC805] (AR v2)
Track 8 accurately ripped (confidence 8) [9767A277] (AR v2)
Track 9 accurately ripped (confidence 8) [D7EE6677] (AR v2)
Track 10 accurately ripped (confidence 8) [7A89E481] (AR v2)
Track 11 accurately ripped (confidence 8) [E7EF5D3C] (AR v2)
Track 12 accurately ripped (confidence 8) [663FD7AB] (AR v2)
Track 13 accurately ripped (confidence 8) [F012BFE1] (AR v2)
Track 14 accurately ripped (confidence 8) [26DE31E7] (AR v2)
Track 15 accurately ripped (confidence 8) [A1975FFF] (AR v2)
Track 16 accurately ripped (confidence 8) [A6BB4A4C] (AR v2)
Track 17 accurately ripped (confidence 8) [41167CCC] (AR v2)
Track 18 accurately ripped (confidence 8) [B51A194E] (AR v2)
Track 19 accurately ripped (confidence 8) [DECBB173] (AR v2)
Track 20 accurately ripped (confidence 8) [A4D16AAD] (AR v2)
Track 21 accurately ripped (confidence 8) [76995FE0] (AR v2)
Track 22 accurately ripped (confidence 8) [2665FFB3] (AR v2)
Track 23 accurately ripped (confidence 8) [6F590BD0] (AR v2)
Track 24 accurately ripped (confidence 8) [DFADB72F] (AR v2)
Track 25 accurately ripped (confidence 8) [42AE957D] (AR v2)
Track 26 accurately ripped (confidence 8) [D8560826] (AR v2)
Track 27 accurately ripped (confidence 8) [767BB93A] (AR v2)
Track 28 accurately ripped (confidence 8) [AF64296F] (AR v2)
Track 29 accurately ripped (confidence 8) [7E718605] (AR v2)
Track 30 accurately ripped (confidence 8) [1EEF4C0D] (AR v2)
All tracks accurately ripped
End of status report
==== Log checksum 2EA82138E4A6A6413C028A7A5017A02480A90D322350D314A69CEDD8A980D6A5 ====

Лог создания рипа: CD2

Exact Audio Copy V1.1 from 23. June 2015
EAC extraction logfile from 13. February 2016, 10:40
The Avison Ensemble / Corelli - Opus 5. Violin Sonatas - CD2
Used drive : HL-DT-STDVDRAM GU70N Adapter: 1 ID: 0
Read mode : Secure
Utilize accurate stream : Yes
Defeat audio cache : Yes
Make use of C2 pointers : No
Read offset correction : 48
Overread into Lead-In and Lead-Out : No
Fill up missing offset samples with silence : Yes
Delete leading and trailing silent blocks : No
Null samples used in CRC calculations : Yes
Used interface : Native Win32 interface for Win NT & 2000
Used output format : User Defined Encoder
Selected bitrate : 128 kBit/s
Quality : High
Add ID3 tag : No
Command line compressor : C:\Program Files (x86)\Exact Audio Copy\Flac\flac.exe
Additional command line options : -V -8 -T "Date=%year%" -T "Genre=%genre%" %source%
TOC of the extracted CD
Track | Start | Length | Start sector | End sector
---------------------------------------------------------
1 | 0:00.00 | 2:12.55 | 0 | 9954
2 | 2:12.55 | 2:45.52 | 9955 | 22381
3 | 4:58.32 | 1:41.63 | 22382 | 30019
4 | 6:40.20 | 2:15.26 | 30020 | 40170
5 | 8:55.46 | 3:28.55 | 40171 | 55825
6 | 12:24.26 | 1:50.47 | 55826 | 64122
7 | 14:14.73 | 2:19.58 | 64123 | 74605
8 | 16:34.56 | 2:14.02 | 74606 | 84657
9 | 18:48.58 | 4:16.12 | 84658 | 103869
10 | 23:04.70 | 3:05.58 | 103870 | 117802
11 | 26:10.53 | 0:34.14 | 117803 | 120366
12 | 26:44.67 | 2:39.59 | 120367 | 132350
13 | 29:24.51 | 1:53.01 | 132351 | 140826
14 | 31:17.52 | 2:21.21 | 140827 | 151422
15 | 33:38.73 | 2:30.59 | 151423 | 162731
16 | 36:09.57 | 7:37.08 | 162732 | 197014
17 | 43:46.65 | 2:41.13 | 197015 | 209102
18 | 46:28.03 | 1:48.11 | 209103 | 217213
19 | 48:16.14 | 2:44.22 | 217214 | 229535
20 | 51:00.36 | 0:42.50 | 229536 | 232735
21 | 51:43.11 | 2:14.03 | 232736 | 242788
22 | 53:57.14 | 5:10.74 | 242789 | 266112
23 | 59:08.13 | 1:21.52 | 266113 | 272239
24 | 60:29.65 | 2:06.53 | 272240 | 281742
25 | 62:36.43 | 0:45.74 | 281743 | 285191
26 | 63:22.42 | 0:35.18 | 285192 | 287834
27 | 63:57.60 | 1:07.61 | 287835 | 292920
28 | 65:05.46 | 1:41.11 | 292921 | 300506
29 | 66:46.57 | 3:34.52 | 300507 | 316608
Range status and errors
Selected range
Filename C:\temp\Corelli - Opus 5. Violin Sonatas\CD2\Corelli - Opus 5. Violin Sonatas - CD2.wav
Peak level 74.3 %
Extraction speed 2.3 X
Range quality 100.0 %
Test CRC 861C71BE
Copy CRC 861C71BE
Copy OK
No errors occurred
AccurateRip summary
Track 1 accurately ripped (confidence 8) [CB6D42BA] (AR v2)
Track 2 accurately ripped (confidence 8) [800C0F1D] (AR v2)
Track 3 accurately ripped (confidence 8) [5F3371F4] (AR v2)
Track 4 accurately ripped (confidence 8) [351A80AB] (AR v2)
Track 5 accurately ripped (confidence 8) [22FDD8AC] (AR v2)
Track 6 accurately ripped (confidence 8) [27263B67] (AR v2)
Track 7 accurately ripped (confidence 8) [4C9BCD6A] (AR v2)
Track 8 accurately ripped (confidence 8) [C6551205] (AR v2)
Track 9 accurately ripped (confidence 8) [AA62E253] (AR v2)
Track 10 accurately ripped (confidence 8) [B50277EF] (AR v2)
Track 11 accurately ripped (confidence 8) [50AD5CDA] (AR v2)
Track 12 accurately ripped (confidence 8) [4A2DDC68] (AR v2)
Track 13 accurately ripped (confidence 8) [D14E88CA] (AR v2)
Track 14 accurately ripped (confidence 8) [F0A1C650] (AR v2)
Track 15 accurately ripped (confidence 8) [326A2DED] (AR v2)
Track 16 accurately ripped (confidence 8) [DF363C7A] (AR v2)
Track 17 accurately ripped (confidence 8) [9A2150CA] (AR v2)
Track 18 accurately ripped (confidence 8) [05FC2291] (AR v2)
Track 19 accurately ripped (confidence 8) [CA8F4168] (AR v2)
Track 20 accurately ripped (confidence 8) [8B34FBDE] (AR v2)
Track 21 accurately ripped (confidence 8) [965D9755] (AR v2)
Track 22 accurately ripped (confidence 8) [1E9A4E17] (AR v2)
Track 23 accurately ripped (confidence 8) [4B877EA4] (AR v2)
Track 24 accurately ripped (confidence 8) [3E9826F4] (AR v2)
Track 25 accurately ripped (confidence 8) [EE5CCD94] (AR v2)
Track 26 accurately ripped (confidence 8) [FFA19EAF] (AR v2)
Track 27 accurately ripped (confidence 8) [A8316D60] (AR v2)
Track 28 accurately ripped (confidence 8) [B65FDEF8] (AR v2)
Track 29 accurately ripped (confidence 8) [87EF22D2] (AR v2)
All tracks accurately ripped
End of status report
==== Log checksum CA70488FDAB1B304EE7D78E4B514090E7581F353A22BE87DA368F28BFE1D1FDD ====



Показать сообщения:    

Текущее время: 04-Дек 19:20

Часовой пояс: UTC + 3


Вы не можете начинать темы
Вы не можете отвечать на сообщения
Вы не можете редактировать свои сообщения
Вы не можете удалять свои сообщения
Вы не можете голосовать в опросах
Вы не можете прикреплять файлы к сообщениям
Вы не можете скачивать файлы