(Classical) J. S. Bach; L. Luzzi; J. Arcadelt; D. Dente; L. Cherubini; G. Caccini; F. Schubert - Ave Maria (Lusine Zakaryan, Levon Abramyan/Abrahamyan) - 1990, FLAC (tracks+.cue) lossless


 

[Цитировать]

J. S. Bach; L. Luzzi; J. Arcadelt; D. Dente; L. Cherubini; G. Caccini; F. Schubert - Ave Maria (Lusine Zakaryan, Levon Abramyan)
Жанр: Classical
Год издания диска: 1990
Издатель (лейбл): Armenia
Номер по каталогу: no
Дата записи: 1989
Аудиокодек: FLAC
Тип рипа: tracks+.cue
Битрейт аудио: lossless
Продолжительность: 00:36:46
Источник: собственный рип
Наличие сканов в содержимом раздачи: да
Исполнители:
Lusine Zakaryan, soprano
Levon Abramyan, organ
Треклист:
01. J. S. Bach (03:40)
02. L. Luzzi (05:24)
03. J. Arcadelt (03:40)
04. D. Dente (04:17)
05. L. Cherubini (05:52)
06. G. Caccini (05:46)
07. F. Schubert (08:07)-

LOG EAC:

Exact Audio Copy V1.0 beta 3 from 29. August 2011
EAC extraction logfile from 18. February 2016, 22:54
Lusine Zakaryan, Levon Abramyan / Ave Maria
Used drive : PIONEER DVD-RW DVR-221L Adapter: 2 ID: 0
Read mode : Secure
Utilize accurate stream : Yes
Defeat audio cache : Yes
Make use of C2 pointers : No
Read offset correction : 6
Overread into Lead-In and Lead-Out : No
Fill up missing offset samples with silence : Yes
Delete leading and trailing silent blocks : No
Null samples used in CRC calculations : Yes
Used interface : Installed external ASPI interface
Gap handling : Appended to previous track
Used output format : User Defined Encoder
Selected bitrate : 768 kBit/s
Quality : High
Add ID3 tag : No
Command line compressor : C:\Program Files\Exact Audio Copy\Flac\flac.exe
Additional command line options : -6 -V -T "ARTIST=%artist%" -T "TITLE=%title%" -T "ALBUM=%albumtitle%" -T "DATE=%year%" -T "TRACKNUMBER=%tracknr%" -T "GENRE=%genre%" -T "COMMENT=%comment%" -T "ALBUMARTIST=%albuminterpret%" -T "COMPOSER=%composer%" -T "DISCNUMBER=%cdnumber%" -T "TOTALDISCS=%totalcds%" -T "TOTALTRACKS=%numtracks%" %source% -o %dest%
TOC of the extracted CD
Track | Start | Length | Start sector | End sector
---------------------------------------------------------
1 | 0:00.00 | 3:40.16 | 0 | 16515
2 | 3:40.16 | 5:23.50 | 16516 | 40790
3 | 9:03.66 | 3:39.42 | 40791 | 57257
4 | 12:43.33 | 4:17.33 | 57258 | 76565
5 | 17:00.66 | 5:52.15 | 76566 | 102980
6 | 22:53.06 | 5:45.63 | 102981 | 128918
7 | 28:38.69 | 8:07.04 | 128919 | 165447
Track 1
Filename D:\EAC\01 - J. S. Bach.wav
Pre-gap length 0:00:02.00
Peak level 47.4 %
Extraction speed 4.9 X
Track quality 100.0 %
Test CRC EBCE7DBD
Copy CRC EBCE7DBD
Track not present in AccurateRip database
Copy OK
Track 2
Filename D:\EAC\02 - L. Luzzi.wav
Peak level 41.2 %
Extraction speed 4.9 X
Track quality 99.9 %
Test CRC 8FAC2393
Copy CRC 8FAC2393
Track not present in AccurateRip database
Copy OK
Track 3
Filename D:\EAC\03 - J. Arcadelt.wav
Peak level 34.8 %
Extraction speed 5.9 X
Track quality 100.0 %
Test CRC 0B9BC288
Copy CRC 0B9BC288
Track not present in AccurateRip database
Copy OK
Track 4
Filename D:\EAC\04 - D. Dente.wav
Peak level 43.1 %
Extraction speed 6.4 X
Track quality 100.0 %
Test CRC 01E6DD3B
Copy CRC 01E6DD3B
Track not present in AccurateRip database
Copy OK
Track 5
Filename D:\EAC\05 - L. Cherubini.wav
Peak level 46.3 %
Extraction speed 7.0 X
Track quality 100.0 %
Test CRC 3FD5F3C5
Copy CRC 3FD5F3C5
Track not present in AccurateRip database
Copy OK
Track 6
Filename D:\EAC\06 - G. Gaccini.wav
Peak level 42.8 %
Extraction speed 4.0 X
Track quality 100.0 %
Test CRC 65132EC1
Copy CRC 65132EC1
Track not present in AccurateRip database
Copy OK
Track 7
Filename D:\EAC\07 - F. Schubert.wav
Peak level 50.6 %
Extraction speed 6.4 X
Track quality 99.9 %
Test CRC 9410E7E4
Copy CRC 9410E7E4
Track not present in AccurateRip database
Copy OK
None of the tracks are present in the AccurateRip database
No errors occurred
End of status report
==== Log checksum 545F2CC2AE18A503079571F13A335B1A0ED39AC40A868EE383217A68E7B3A2DD ====

LOG (.CUE):

REM GENRE Classical
REM DATE 1990
REM DISCID 47089D07
REM COMMENT "ExactAudioCopy v1.0b3"
PERFORMER "Lusine Zakaryan, Levon Abramyan"
TITLE "Ave Maria"
FILE "01 - J. S. Bach.wav" WAVE
TRACK 01 AUDIO
TITLE "J. S. Bach"
PERFORMER "Lusine Zakaryan, Levon Abramyan"
INDEX 01 00:00:00
FILE "02 - L. Luzzi.wav" WAVE
TRACK 02 AUDIO
TITLE "L. Luzzi"
PERFORMER "Lusine Zakaryan, Levon Abramyan"
INDEX 01 00:00:00
FILE "03 - J. Arcadelt.wav" WAVE
TRACK 03 AUDIO
TITLE "J. Arcadelt"
PERFORMER "Lusine Zakaryan, Levon Abramyan"
INDEX 01 00:00:00
FILE "04 - D. Dente.wav" WAVE
TRACK 04 AUDIO
TITLE "D. Dente"
PERFORMER "Lusine Zakaryan, Levon Abramyan"
INDEX 01 00:00:00
FILE "05 - L. Cherubini.wav" WAVE
TRACK 05 AUDIO
TITLE "L. Cherubini"
PERFORMER "Lusine Zakaryan, Levon Abramyan"
INDEX 01 00:00:00
FILE "06 - G. Gaccini.wav" WAVE
TRACK 06 AUDIO
TITLE "G. Gaccini"
PERFORMER "Lusine Zakaryan, Levon Abramyan"
INDEX 01 00:00:00
FILE "07 - F. Schubert.wav" WAVE
TRACK 07 AUDIO
TITLE "F. Schubert"
PERFORMER "Lusine Zakaryan, Levon Abramyan"
INDEX 01 00:00:00
-



Показать сообщения:    

Текущее время: 09-Дек 18:33

Часовой пояс: UTC + 3


Вы не можете начинать темы
Вы не можете отвечать на сообщения
Вы не можете редактировать свои сообщения
Вы не можете удалять свои сообщения
Вы не можете голосовать в опросах
Вы не можете прикреплять файлы к сообщениям
Вы не можете скачивать файлы