Морожены песни или Сила песни моей плясовой (Галина Анпилогова) [2015 г., музыкальная сказка, WEB-DLRip] Филармонический театр "Зеркало" (Иркутск)


 

[Цитировать]

Морожены песни или Сила песни моей плясовой Название театра: Филармонический театр "Зеркало" (Иркутск).
Год выпуска: 2015.
Жанр: музыкальная сказка.
Продолжительность: 01:08:20.
Режиссёр: Галина Анпилогова.
В ролях:
Наталия Маламуд, Николай Кулебякин, Вероника Леонова, Александр Айдаров, Роман Бурматов.
Иркутский филармоническим русский ансамбль под руководством Бориса Бикбова.
О спектакле:
Первым спектаклем театра стала музыкальная сказка для взрослых «Морожены песни», или «Сила песни моей плясовой», созданная по произведениям известного современного писателя Степана Писахова. В ней приняли участие артисты двух учреждений: Филармонии и Иркутского областного театра юного зрителя имени А. Вампилова. ТЮЗ представляли актёры Наталия Маламуд и Николай Кулебякин, выступившие в главных ролях. Их игра была искромётна и заразительна, речь – неповторимо своеобразна и ярка.
Филармония была представлена в спектакле солистами и лауреатом международных конкурсов Иркутским филармоническим русским ансамблем под руководством Бориса Бикбова. Солистка филармонии исполнила в проекте русские народные и современные песни, замечательно звучал в дуэтах с нею и в сольных выступлениях Александр Айдаров – певец, совмещающий работу в Филармонии и Музыкальном театре имени Н. М. Загурского. Роман Бурматов выступил в двух качествах – как музыкант, играющий на балалайке и на гитаре, а также как актёр. Украшением спектакля стал также видеоряд, талантливо создаваемый прямо на экране перед глазами публики руками художника песочного шоу Екатерины Костюминской.

Дополнительная информация:
Страна: Россия .
Автор: Степан Писахов.
Автор проекта, инсценировщик и режиссёр: Галина Анпилогова.
Художник песочного шоу: Екатерина Костюминская.
Релиз
Рип sharky.

Качество видео:...WEB-DLRip
Формат:.................AVI
Видео:..704x400 (1.76:1), 25 fps, XviD build 47 ~2142 kbps avg, 0.30 bit/pixel
Аудио:..44.100 kHz, MPEG Layer 3, 2 ch, ~128.00 kbps avg

Отчет MI

Общее
Полное имя : Morozheny.pesni.ili.Sila.pesni.moej.plyasovoj_Filarmonicheskij.teatr.Zerkalo.Irkutsk.2015XviD.WEB-DLRip.fenixclub.avi
Format : AVI
Format/Info : Audio Video Interleave
File size : 1.09 GiB
Duration : 1h 8mn
Overall bit rate : 2 281 Kbps
Writing application : VirtualDubMod 1.5.10.2 (build 2540/release)
Writing library : VirtualDubMod build 2540/release
Video
ID : 0
Format : MPEG-4 Visual
Format profile : Advanced Simple@L5
Format settings, BVOP : 1
Format settings, QPel : No
Format settings, GMC : No warppoints
Format settings, Matrix : Default (H.263)
Codec ID : XVID
Codec ID/Hint : XviD
Duration : 1h 8mn
Bit rate : 2 143 Kbps
Width : 704 pixels
Height : 400 pixels
Display aspect ratio : 16:9
Frame rate : 25.000 fps
Color space : YUV
Chroma subsampling : 4:2:0
Bit depth : 8 bits
Scan type : Progressive
Compression mode : Lossy
Bits/(Pixel*Frame) : 0.304
Stream size : 1.02 GiB (94%)
Writing library : XviD 1.2.0.dev47 (UTC 2006-11-01)
Audio
ID : 1
Format : MPEG Audio
Format version : Version 1
Format profile : Layer 3
Codec ID : 55
Codec ID/Hint : MP3
Duration : 1h 8mn
Bit rate mode : Constant
Bit rate : 128 Kbps
Channel(s) : 2 channels
Sampling rate : 44.1 KHz
Compression mode : Lossy
Stream size : 62.6 MiB (6%)
Alignment : Split accross interleaves
Interleave, duration : 40 ms (1.00 video frame)
Interleave, preload duratio : 500 ms
Writing library : LAME3.97
Encoding settings : -m s -V 4 -q 2 -lowpass 17 -b 128

Скриншот с названием постановки

Скриншоты


Альтернативный хост





Показать сообщения:    

Текущее время: 05-Дек 11:33

Часовой пояс: UTC + 3


Вы не можете начинать темы
Вы не можете отвечать на сообщения
Вы не можете редактировать свои сообщения
Вы не можете удалять свои сообщения
Вы не можете голосовать в опросах
Вы не можете прикреплять файлы к сообщениям
Вы не можете скачивать файлы