(Classical) The Music Of Andrew Lloyd Webber - The Choral Album (Lesley Garrett, Crouch End Festival Chorus, Robin Stapleton; Royal Philharmonic Orchestra) - 2003, FLAC (tracks+.cue) lossless


Статистика раздачи [Обновить пиров]
Размер:  312 MB   |    Зарегистрирован:  8 месяцев 21 день   |    Скачан:  0 раз

Полного источника не было: Никогда

 
   
 
 
 

[Цитировать]

The Music Of Andrew Lloyd Webber - The Choral Album
Жанр: Classical
Год издания диска: 2003
Издатель (лейбл): Silva America
Номер по каталогу: SILKD6036
Аудиокодек: FLAC
Тип рипа: tracks+.cue
Битрейт аудио: lossless
Продолжительность: 00:56:54
Источник: скачано из сети
Наличие сканов в содержимом раздачи: да
Исполнители:
Lesley Garrett, sololist
Crouch End Festival Chorus
Royal Philharmonic Orchestra
Robin Stapleton Conductor

Треклист:

01. Phantom of the Opera from PHANTOM OF THE OPERA (Lesley Garrett, sololist) (03:32)
02. Music of the Night from PHANTOM OF THE OPERA (05:28)
03. Wishing You Were Somehow Here from PHANTOM OF THE OPERA (Lesley Garrett, sololist) (03:27)
04. Think of Me from PHANTOM OF THE OPERA (03:34)
05. All I Ask of You from PHANTOM OF THE OPERA (04:20)
06. Don't Cry for Me Argentina from EVITA (Sharon Campbell) (05:16)
07. Another Suitcase in Anothrer Hall from EVITA (03:05)
08. Memory from CATS (Lesley Garrett, soloist) (04:05)
09. Close Every Door from JOSEPH & HIS AMAZING TECHNICOLOR DREAMCOAT (03:42)
10. Tell Me on a Sunday from TELL ME ON A SUNDAY (03:35)
11. I Don't Know How to Love Him from JESUS CHRIST SUPERSTAR (03:32)
12. Pie Jesu from REQUIEM (Tito Beltran, soloist) (02:44)
13. Love Changes Everything from ASPECTS OF LOVE (03:06)
14. Next Time You Fall in Love from STARLIGHT EXPRESS (03:41)
15. With One Look from SUNSET BOULEVARD (Mary Carewe, soloist) (03:47)
-

LOG EAC:

Exact Audio Copy V1.0 beta 3 from 29. August 2011
EAC extraction logfile from 5. September 2014, 22:50
Andrew Lloyd Webber / The Music Of Andrew Lloyd Webber . The Choral Album
Used drive : hp DVDRAM GU70N Adapter: 0 ID: 0
Read mode : Secure
Utilize accurate stream : Yes
Defeat audio cache : Yes
Make use of C2 pointers : No
Read offset correction : 48
Overread into Lead-In and Lead-Out : No
Fill up missing offset samples with silence : Yes
Delete leading and trailing silent blocks : No
Null samples used in CRC calculations : Yes
Used interface : Native Win32 interface for Win NT & 2000
Gap handling : Appended to previous track
Used output format : User Defined Encoder
Selected bitrate : 768 kBit/s
Quality : High
Add ID3 tag : No
Command line compressor : C:\Program Files (x86)\Exact Audio Copy\FLAC\FLAC.EXE
Additional command line options : -8 -V -T "ARTIST=%artist%" -T "TITLE=%title%" -T "ALBUM=%albumtitle%" -T "DATE=%year%" -T "TRACKNUMBER=%tracknr%" -T "GENRE=%genre%" -T "PERFORMER=%albuminterpret%" -T "COMPOSER=%composer%" %haslyrics%--tag-from-file=LYRICS="%lyricsfile%"%haslyrics% -T "ALBUMARTIST=%albumartist%" -T "DISCNUMBER=%cdnumber%" -T "TOTALDISCS=%totalcds%" -T "TOTALTRACKS=%numtracks%" -T "COMMENT=%comment%" %source% -o %dest%
TOC of the extracted CD
Track | Start | Length | Start sector | End sector
---------------------------------------------------------
1 | 0:00.00 | 3:31.39 | 0 | 15863
2 | 3:31.39 | 5:28.10 | 15864 | 40473
3 | 8:59.49 | 3:27.22 | 40474 | 56020
4 | 12:26.71 | 3:33.51 | 56021 | 72046
5 | 16:00.47 | 4:19.70 | 72047 | 91541
6 | 20:20.42 | 5:16.33 | 91542 | 115274
7 | 25:37.00 | 3:05.20 | 115275 | 129169
8 | 28:42.20 | 4:04.71 | 129170 | 147540
9 | 32:47.16 | 3:41.65 | 147541 | 164180
10 | 36:29.06 | 3:35.35 | 164181 | 180340
11 | 40:04.41 | 3:32.24 | 180341 | 196264
12 | 43:36.65 | 2:44.07 | 196265 | 208571
13 | 46:20.72 | 3:06.15 | 208572 | 222536
14 | 49:27.12 | 3:40.38 | 222537 | 239074
15 | 53:07.50 | 3:46.66 | 239075 | 256090
Track 1
Filename C:\Users\luke\Downloads\what.cd\Upload\Rips\Andrew Lloyd Webber - The Music Of Andrew Lloyd Webber . The Choral Album (2003) [FLAC]\01 Phantom of the Opera from PHANTOM OF THE OPERA (Lesley Garrett, sololist).wav
Pre-gap length 0:00:02.00
Peak level 96.6 %
Extraction speed 2.6 X
Track quality 100.0 %
Test CRC 2B95D9FA
Copy CRC 2B95D9FA
Accurately ripped (confidence 3) [47E1DFE8] (AR v1)
Copy OK
Track 2
Filename C:\Users\luke\Downloads\what.cd\Upload\Rips\Andrew Lloyd Webber - The Music Of Andrew Lloyd Webber . The Choral Album (2003) [FLAC]\02 Music of the Night from PHANTOM OF THE OPERA.wav
Peak level 96.6 %
Extraction speed 3.1 X
Track quality 100.0 %
Test CRC A347ADC4
Copy CRC A347ADC4
Accurately ripped (confidence 3) [C70397F7] (AR v1)
Copy OK
Track 3
Filename C:\Users\luke\Downloads\what.cd\Upload\Rips\Andrew Lloyd Webber - The Music Of Andrew Lloyd Webber . The Choral Album (2003) [FLAC]\03 Wishing You Were Somehow Here from PHANTOM OF THE OPERA (Lesley Garrett, sololist).wav
Peak level 96.6 %
Extraction speed 1.4 X
Track quality 100.0 %
Test CRC A5E8A138
Copy CRC A5E8A138
Accurately ripped (confidence 3) [9B6E3508] (AR v1)
Copy OK
Track 4
Filename C:\Users\luke\Downloads\what.cd\Upload\Rips\Andrew Lloyd Webber - The Music Of Andrew Lloyd Webber . The Choral Album (2003) [FLAC]\04 Think of Me from PHANTOM OF THE OPERA.wav
Peak level 100.0 %
Extraction speed 1.5 X
Track quality 100.0 %
Test CRC 15895A80
Copy CRC 15895A80
Accurately ripped (confidence 3) [AD898D6F] (AR v1)
Copy OK
Track 5
Filename C:\Users\luke\Downloads\what.cd\Upload\Rips\Andrew Lloyd Webber - The Music Of Andrew Lloyd Webber . The Choral Album (2003) [FLAC]\05 All I Ask of You from PHANTOM OF THE OPERA.wav
Peak level 100.0 %
Extraction speed 1.4 X
Track quality 99.9 %
Test CRC B2F598C0
Copy CRC B2F598C0
Accurately ripped (confidence 3) [752939E2] (AR v1)
Copy OK
Track 6
Filename C:\Users\luke\Downloads\what.cd\Upload\Rips\Andrew Lloyd Webber - The Music Of Andrew Lloyd Webber . The Choral Album (2003) [FLAC]\06 Don't Cry for Me Argentina from EVITA (Sharon Campbell).wav
Peak level 96.9 %
Extraction speed 1.8 X
Track quality 100.0 %
Test CRC 9AFE6578
Copy CRC 9AFE6578
Accurately ripped (confidence 3) [77654CBF] (AR v1)
Copy OK
Track 7
Filename C:\Users\luke\Downloads\what.cd\Upload\Rips\Andrew Lloyd Webber - The Music Of Andrew Lloyd Webber . The Choral Album (2003) [FLAC]\07 Another Suitcase in Anothrer Hall from EVITA.wav
Peak level 96.6 %
Extraction speed 1.5 X
Track quality 99.9 %
Test CRC 52DAA1CE
Copy CRC 52DAA1CE
Accurately ripped (confidence 3) [3A4BC54D] (AR v1)
Copy OK
Track 8
Filename C:\Users\luke\Downloads\what.cd\Upload\Rips\Andrew Lloyd Webber - The Music Of Andrew Lloyd Webber . The Choral Album (2003) [FLAC]\08 Memory from CATS (Lesley Garrett, soloist).wav
Peak level 96.6 %
Extraction speed 1.9 X
Track quality 100.0 %
Test CRC 60C1842A
Copy CRC 60C1842A
Accurately ripped (confidence 3) [17693586] (AR v1)
Copy OK
Track 9
Filename C:\Users\luke\Downloads\what.cd\Upload\Rips\Andrew Lloyd Webber - The Music Of Andrew Lloyd Webber . The Choral Album (2003) [FLAC]\09 Close Every Door from JOSEPH & HIS AMAZING TECHNICOLOR DREAMCOAT.wav
Peak level 96.6 %
Extraction speed 2.0 X
Track quality 100.0 %
Test CRC D142AF07
Copy CRC D142AF07
Accurately ripped (confidence 3) [61A8DA1F] (AR v1)
Copy OK
Track 10
Filename C:\Users\luke\Downloads\what.cd\Upload\Rips\Andrew Lloyd Webber - The Music Of Andrew Lloyd Webber . The Choral Album (2003) [FLAC]\10 Tell Me on a Sunday from TELL ME ON A SUNDAY.wav
Peak level 96.6 %
Extraction speed 1.7 X
Track quality 99.9 %
Test CRC 8E8A556C
Copy CRC 8E8A556C
Accurately ripped (confidence 3) [9C280EE6] (AR v1)
Copy OK
Track 11
Filename C:\Users\luke\Downloads\what.cd\Upload\Rips\Andrew Lloyd Webber - The Music Of Andrew Lloyd Webber . The Choral Album (2003) [FLAC]\11 I Don't Know How to Love Him from JESUS CHRIST SUPERSTAR.wav
Peak level 96.6 %
Extraction speed 2.1 X
Track quality 100.0 %
Test CRC E9DF8BBC
Copy CRC E9DF8BBC
Accurately ripped (confidence 3) [055E203E] (AR v1)
Copy OK
Track 12
Filename C:\Users\luke\Downloads\what.cd\Upload\Rips\Andrew Lloyd Webber - The Music Of Andrew Lloyd Webber . The Choral Album (2003) [FLAC]\12 Pie Jesu from REQUIEM (Tito Beltrán, soloist).wav
Peak level 80.4 %
Extraction speed 2.1 X
Track quality 100.0 %
Test CRC 4AC2E0BF
Copy CRC 4AC2E0BF
Accurately ripped (confidence 3) [9E18DF21] (AR v1)
Copy OK
Track 13
Filename C:\Users\luke\Downloads\what.cd\Upload\Rips\Andrew Lloyd Webber - The Music Of Andrew Lloyd Webber . The Choral Album (2003) [FLAC]\13 Love Changes Everything from ASPECTS OF LOVE.wav
Peak level 96.6 %
Extraction speed 2.1 X
Track quality 100.0 %
Test CRC CCA9CCB3
Copy CRC CCA9CCB3
Accurately ripped (confidence 3) [793A1D44] (AR v1)
Copy OK
Track 14
Filename C:\Users\luke\Downloads\what.cd\Upload\Rips\Andrew Lloyd Webber - The Music Of Andrew Lloyd Webber . The Choral Album (2003) [FLAC]\14 Next Time You Fall in Love from STARLIGHT EXPRESS.wav
Peak level 98.0 %
Extraction speed 2.2 X
Track quality 100.0 %
Test CRC 348E5217
Copy CRC 348E5217
Accurately ripped (confidence 3) [EBC5A717] (AR v1)
Copy OK
Track 15
Filename C:\Users\luke\Downloads\what.cd\Upload\Rips\Andrew Lloyd Webber - The Music Of Andrew Lloyd Webber . The Choral Album (2003) [FLAC]\15 With One Look from SUNSET BOULEVARD (Mary Carewe, soloist).wav
Peak level 96.6 %
Extraction speed 2.3 X
Track quality 100.0 %
Test CRC 51872B18
Copy CRC 51872B18
Accurately ripped (confidence 3) [B245CE30] (AR v1)
Copy OK
All tracks accurately ripped
No errors occurred
End of status report
---- CUETools DB Plugin V2.1.3
[CTDB TOCID: HXn6MFLvB4ET8iykuz8sr21IFO0-] found, Submit result: HXn6MFLvB4ET8iykuz8sr21IFO0- has been uploaded
[032ec55f] (1/1) Differs in 8 samples @12:26:63
You can use CUETools to repair this rip.
==== Log checksum B2303605C2EBC39EB235670FAAAD82C4173B6623982BD5D322E1C83F7BDEB668 ====

LOG (.CUE):

REM GENRE Soundtrack
REM DATE 2003
REM DISCID E20D560F
REM COMMENT "ExactAudioCopy v1.0b3"
PERFORMER "Andrew Lloyd Webber"
TITLE "The Music Of Andrew Lloyd Webber . The Choral Album"
FILE "01 Phantom of the Opera from PHANTOM OF THE OPERA (Lesley Garrett, sololist).wav" WAVE
TRACK 01 AUDIO
TITLE "Phantom of the Opera from PHANTOM OF THE OPERA (Lesley Garrett, sololist)"
PERFORMER "Andrew Lloyd Webber"
ISRC GBAJC0304310
INDEX 01 00:00:00
FILE "02 Music of the Night from PHANTOM OF THE OPERA.wav" WAVE
TRACK 02 AUDIO
TITLE "Music of the Night from PHANTOM OF THE OPERA"
PERFORMER "Andrew Lloyd Webber"
ISRC GBAJC0304311
INDEX 01 00:00:00
FILE "03 Wishing You Were Somehow Here from PHANTOM OF THE OPERA (Lesley Garrett, sololist).wav" WAVE
TRACK 03 AUDIO
TITLE "Wishing You Were Somehow Here from PHANTOM OF THE OPERA (Lesley Garrett, solo..."
PERFORMER "Andrew Lloyd Webber"
ISRC GBAJC0304312
INDEX 01 00:00:00
FILE "04 Think of Me from PHANTOM OF THE OPERA.wav" WAVE
TRACK 04 AUDIO
TITLE "Think of Me from PHANTOM OF THE OPERA"
PERFORMER "Andrew Lloyd Webber"
ISRC GBAJC0304313
INDEX 01 00:00:00
FILE "05 All I Ask of You from PHANTOM OF THE OPERA.wav" WAVE
TRACK 05 AUDIO
TITLE "All I Ask of You from PHANTOM OF THE OPERA"
PERFORMER "Andrew Lloyd Webber"
ISRC GBAJC0304314
INDEX 01 00:00:00
FILE "06 Don't Cry for Me Argentina from EVITA (Sharon Campbell).wav" WAVE
TRACK 06 AUDIO
TITLE "Don't Cry for Me Argentina from EVITA (Sharon Campbell)"
PERFORMER "Andrew Lloyd Webber"
ISRC GBAJC0304315
INDEX 01 00:00:00
FILE "07 Another Suitcase in Anothrer Hall from EVITA.wav" WAVE
TRACK 07 AUDIO
TITLE "Another Suitcase in Anothrer Hall from EVITA"
PERFORMER "Andrew Lloyd Webber"
ISRC GBAJC0304316
INDEX 01 00:00:00
FILE "08 Memory from CATS (Lesley Garrett, soloist).wav" WAVE
TRACK 08 AUDIO
TITLE "Memory from CATS (Lesley Garrett, soloist)"
PERFORMER "Andrew Lloyd Webber"
ISRC GBAJC0304317
INDEX 01 00:00:00
FILE "09 Close Every Door from JOSEPH & HIS AMAZING TECHNICOLOR DREAMCOAT.wav" WAVE
TRACK 09 AUDIO
TITLE "Close Every Door from JOSEPH & HIS AMAZING TECHNICOLOR DREAMCOAT"
PERFORMER "Andrew Lloyd Webber"
ISRC GBAJC0304318
INDEX 01 00:00:00
FILE "10 Tell Me on a Sunday from TELL ME ON A SUNDAY.wav" WAVE
TRACK 10 AUDIO
TITLE "Tell Me on a Sunday from TELL ME ON A SUNDAY"
PERFORMER "Andrew Lloyd Webber"
ISRC GBAJC0304319
INDEX 01 00:00:00
FILE "11 I Don't Know How to Love Him from JESUS CHRIST SUPERSTAR.wav" WAVE
TRACK 11 AUDIO
TITLE "I Don't Know How to Love Him from JESUS CHRIST SUPERSTAR"
PERFORMER "Andrew Lloyd Webber"
ISRC GBAJC0304320
INDEX 01 00:00:00
FILE "12 Pie Jesu from REQUIEM (Tito Beltrбn, soloist).wav" WAVE
TRACK 12 AUDIO
TITLE "Pie Jesu from REQUIEM (Tito Beltrбn, soloist)"
PERFORMER "Andrew Lloyd Webber"
ISRC GBAJC0304321
INDEX 01 00:00:00
FILE "13 Love Changes Everything from ASPECTS OF LOVE.wav" WAVE
TRACK 13 AUDIO
TITLE "Love Changes Everything from ASPECTS OF LOVE"
PERFORMER "Andrew Lloyd Webber"
ISRC GBAJC0304322
INDEX 01 00:00:00
FILE "14 Next Time You Fall in Love from STARLIGHT EXPRESS.wav" WAVE
TRACK 14 AUDIO
TITLE "Next Time You Fall in Love from STARLIGHT EXPRESS"
PERFORMER "Andrew Lloyd Webber"
ISRC GBAJC0304323
INDEX 01 00:00:00
FILE "15 With One Look from SUNSET BOULEVARD (Mary Carewe, soloist).wav" WAVE
TRACK 15 AUDIO
TITLE "With One Look from SUNSET BOULEVARD (Mary Carewe, soloist)"
PERFORMER "Andrew Lloyd Webber"
ISRC GBAJC0304324
INDEX 01 00:00:00
[teatrix.ru].t23024.torrent 
Торрент: Зарегистрирован [ 2016-03-21 00:34 ] · 244139C8626B998709780638B6CDDB49831E87AF

Скачать .torrent

Скачать

14 KB

Статус: проверено
Скачан: 0 раз
Размер: 312 MB
terms.php



Быстрый ответ

Имя:

      
Для отправки сообщений необходимо включить JavaScript
Показать сообщения:    

Текущее время: 11-Дек 05:20

Часовой пояс: UTC + 3


Вы можете начинать темы
Вы можете отвечать на сообщения
Вы не можете редактировать свои сообщения
Вы не можете удалять свои сообщения
Вы не можете голосовать в опросах
Вы не можете прикреплять файлы к сообщениям
Вы можете скачивать файлы