Комната в Риме / Room in Rome (Хулио Медем/Julio Medem) [2010, Испания, Эротика, мелодрама, драма, BDRip-AVC] MVO


 

[Цитировать]

Комната в Риме / Habitación en Roma / Room in Rome
Страна: Испания
Жанр: Эротика, мелодрама, драма
Год выпуска: 2010
Продолжительность: 01:47:26
Перевод: Профессиональный (многоголосый закадровый)
Cубтитры: нет
Оригинальная аудиодорожка: нет
Режиссер: Хулио Медем/Julio Medem
В ролях: Елена Анайя, Наташа Яровенко, Энрико Ло Версо, Наджва Нимри
Описание: Две девушки, русская и испанка, знакомятся в одном из баров Рима. Они представляются друг другу как Наташа и Альба. Альба предлагает зайти к ней в гости в номер, в одном из отелей. Поддавшись очарованию испанки, Наташа соглашается. Интимное общение переходит в рассказ о жизни друг друга. Альба рассказала, что она бывшая жена богатого араба. Она должна была родить ему дочь, но решила сбежать от него, иначе ей бы пришлось всю жизнь провести в гареме. Теперь она живёт в городе Сан-Себастьян в Испании. Наташа рассказывает, что родом с острова Некрасов, она актриса и приехала в Рим на пробы. У неё есть сестра-близнец Даша, известная теннисистка. У них рано умерла мать, и отец принуждал Наташу к сексу. Откровенные признания девушек сменяются сексом, а после секса продолжаются признания, и истории меняются раз за разом. Ненастоящие имена подруг заставляют усомниться и в правдивости всего ими рассказанного, ведь после этой ночи они никогда больше не встретятся. Но возникшие чувства неожиданно оказываются слишком сильны.
Сэмпл
Исходник

Качество видео: BDRip-AVC
Формат видео: MKV
Видео: x264, 720x400, 16:9, 24 fps, 1760 kbps
Аудио: ac3, 48 KHz, 192 kbps, 2 ch (L, R), 16 bit

MediaInfo

E:\My Films\Habitacion_en_Roma.BDRip-AVC_by_Indigo-child.mkv
General
Unique ID : 237981057665132638589739036917291130858 (0xB3097C0933E5D16AAA20E5AA02DD9FEA)
Complete name : E:\My Films\Habitacion_en_Roma.BDRip-AVC_by_Indigo-child.mkv
Format : Matroska
File size : 1.46 GiB
Duration : 1h 47mn
Overall bit rate : 1 945 Kbps
Encoded date : UTC 2016-03-02 21:12:50
Writing application : mkvmerge v6.1.0 ('Old Devil') built on Mar 4 2013 09:10:42
Writing library : libebml v1.3.0 + libmatroska v1.4.0
Video #1
ID : 1
Format : AVC
Format/Info : Advanced Video Codec
Format profile : High@L4.1
Format settings, CABAC : Yes
Format settings, ReFrames : 12 frames
Codec ID : V_MPEG4/ISO/AVC
Duration : 1h 47mn
Bit rate : 1 760 Kbps
Width : 720 pixels
Height : 400 pixels
Display aspect ratio : 16:9
Frame rate : 24.000 fps
Color space : YUV
Chroma subsampling : 4:2:0
Bit depth : 8 bits
Scan type : Progressive
Bits/(Pixel*Frame) : 0.255
Stream size : 1.29 GiB (88%)
Writing library : x264 core 130 r2273 b3065e6
Encoding settings : cabac=1 / ref=12 / deblock=1:-2:-1 / analyse=0x3:0x113 / me=umh / subme=11 / psy=1 / psy_rd=1.00:0.00 / mixed_ref=1 / me_range=38 / chroma_me=1 / trellis=2 / 8x8dct=1 / cqm=0 / deadzone=21,11 / fast_pskip=1 / chroma_qp_offset=-4 / threads=6 / lookahead_threads=1 / sliced_threads=0 / nr=0 / decimate=1 / interlaced=0 / bluray_compat=0 / constrained_intra=0 / bframes=11 / b_pyramid=2 / b_adapt=2 / b_bias=0 / direct=3 / weightb=1 / open_gop=0 / weightp=2 / keyint=250 / keyint_min=23 / scenecut=40 / intra_refresh=0 / rc_lookahead=40 / rc=2pass / mbtree=0 / bitrate=1760 / ratetol=1.0 / qcomp=0.60 / qpmin=10 / qpmax=51 / qpstep=4 / cplxblur=20.0 / qblur=0.5 / vbv_maxrate=50000 / vbv_bufsize=62500 / nal_hrd=none / ip_ratio=1.20 / pb_ratio=1.20 / aq=1:1.00
Audio #2
ID : 2
Format : AC-3
Format/Info : Audio Coding 3
Mode extension : CM (complete main)
Codec ID : A_AC3
Duration : 1h 47mn
Bit rate mode : Constant
Bit rate : 192 Kbps
Channel(s) : 2 channels
Channel positions : Front: L R
Sampling rate : 48.0 KHz
Bit depth : 16 bits
Compression mode : Lossy
Stream size : 148 MiB (10%)

Скриншот с названием фильма




Показать сообщения:    

Текущее время: 09-Дек 03:05

Часовой пояс: UTC + 3


Вы не можете начинать темы
Вы не можете отвечать на сообщения
Вы не можете редактировать свои сообщения
Вы не можете удалять свои сообщения
Вы не можете голосовать в опросах
Вы не можете прикреплять файлы к сообщениям
Вы не можете скачивать файлы