Андрей Бахурин - Пять мультфильмов [2009-2015, Россия, авторская анимация, WEBRip]


 

[Цитировать]

Андрей Бахурин – Пять мультфильмов
Андрей Бахурин - мультипликатор из Петербурга, один из самых ярких представителей российской независимой анимации. Был одним из создателей сайта KOMS.ru
В его мультфильмах, как правило, урбанистические сюжеты с элементами абсурда, зачастую мрачные, но не лишённые иронии.

Драйв / The Drive
Страна: Россия
Жанр: авторская анимация
Год выпуска: 2009
Продолжительность: 00:02:02
Описание: Короткая фантасмагория на музыку группы "Theodor Bastard".
Качество видео: WEBRip
Формат видео: AVI
Видео: 839 kbps, 560х416 (4:3), 25.000 fps, MPEG-4 (XviD)
Аудио: 128 kbps, 44.1 kHz, 2 channels, MPEG Audio (MP3)

MediaInfo

General
Complete name : The Drive (2009).avi
Format : AVI
Format/Info : Audio Video Interleave
File size : 14.3 MiB
Duration : 2mn 2s
Overall bit rate : 976 Kbps
Writing library : VirtualDub build 35491/release
Video
ID : 0
Format : MPEG-4 Visual
Format profile : Advanced Simple@L4
Format settings, BVOP : 2
Format settings, QPel : No
Format settings, GMC : No warppoints
Format settings, Matrix : Default (H.263)
Codec ID : XVID
Codec ID/Hint : XviD
Duration : 2mn 2s
Bit rate : 839 Kbps
Width : 560 pixels
Height : 416 pixels
Display aspect ratio : 4:3
Frame rate : 25.000 fps
Color space : YUV
Chroma subsampling : 4:2:0
Bit depth : 8 bits
Scan type : Progressive
Compression mode : Lossy
Bits/(Pixel*Frame) : 0.144
Stream size : 12.2 MiB (86%)
Writing library : XviD 64
Audio
ID : 1
Format : MPEG Audio
Format version : Version 1
Format profile : Layer 3
Mode : Joint stereo
Mode extension : MS Stereo
Codec ID : 55
Codec ID/Hint : MP3
Duration : 2mn 2s
Bit rate mode : Constant
Bit rate : 128 Kbps
Channel(s) : 2 channels
Sampling rate : 44.1 KHz
Compression mode : Lossy
Stream size : 1.87 MiB (13%)
Alignment : Split accross interleaves
Interleave, duration : 40 ms (1.00 video frame)
Interleave, preload duration : 501 ms

Скриншот c названием фильма

Скриншоты

Волшебный горшок / The Magic pot
Страна: Россия
Жанр: авторская анимация
Год выпуска: 2010
Продолжительность: 00:03:34
Описание: Дети пробираются в квартиру злой бабушки и обнаруживают агрегат, способный уменьшать живые организмы...
Качество видео: WEBRip
Формат видео: AVI
Видео: 2142 kbps, 720х400 (16:9), 25.000 fps, MPEG-4 (XviD)
Аудио: 192 kbps, 44.1 kHz, 1 channel, MPEG Audio (MP3)

MediaInfo

General
Complete name : The Magic pot (2010).avi
Format : AVI
Format/Info : Audio Video Interleave
File size : 60.1 MiB
Duration : 3mn 34s
Overall bit rate : 2 347 Kbps
Writing application : Lavf55.33.100
Video
ID : 0
Format : MPEG-4 Visual
Format profile : Advanced Simple@L5
Format settings, BVOP : No
Format settings, QPel : No
Format settings, GMC : No warppoints
Format settings, Matrix : Default (H.263)
Codec ID : XVID
Codec ID/Hint : XviD
Duration : 3mn 34s
Bit rate : 2 142 Kbps
Width : 720 pixels
Height : 400 pixels
Display aspect ratio : 16:9
Frame rate : 25.000 fps
Color space : YUV
Chroma subsampling : 4:2:0
Bit depth : 8 bits
Scan type : Progressive
Compression mode : Lossy
Bits/(Pixel*Frame) : 0.297
Stream size : 54.9 MiB (91%)
Writing library : XviD 64
Audio
ID : 1
Format : MPEG Audio
Format version : Version 1
Format profile : Layer 3
Codec ID : 55
Codec ID/Hint : MP3
Duration : 3mn 34s
Bit rate mode : Constant
Bit rate : 192 Kbps
Channel(s) : 1 channel
Sampling rate : 44.1 KHz
Compression mode : Lossy
Stream size : 4.92 MiB (8%)
Alignment : Aligned on interleaves
Interleave, duration : 26 ms (0.65 video frame)
Interleave, preload duration : 26 ms
Writing library : LAME3.99.5

Скриншот c названием фильма

Скриншоты

Серый человек (Жлобинские игрушки. Часть 2)
Страна: Россия
Жанр: авторская анимация
Год выпуска: 2010
Продолжительность: 00:06:11
Описание: У героини фильма в детстве заводится невидимый (для других) друг, тайну которого она узнает, лишь став взрослой...
Доп.информация: Первая часть фильма здесь - http://teatrix.ru/viewtopic.php?t=5181
Качество видео: WEBRip
Формат видео: AVI
Видео: 1429 kbps, 720х400 (16:9), 25.000 fps, MPEG-4 (XviD)
Аудио: 128 kbps, 44.1 kHz, 1 channel, MPEG Audio (MP3)

MediaInfo

General
Complete name : Серый человек (2010).avi
Format : AVI
Format/Info : Audio Video Interleave
File size : 69.4 MiB
Duration : 6mn 11s
Overall bit rate : 1 566 Kbps
Writing library : VirtualDub build 35491/release
Video
ID : 0
Format : MPEG-4 Visual
Format profile : Advanced Simple@L4
Format settings, BVOP : 2
Format settings, QPel : No
Format settings, GMC : No warppoints
Format settings, Matrix : Default (H.263)
Codec ID : XVID
Codec ID/Hint : XviD
Duration : 6mn 11s
Bit rate : 1 429 Kbps
Width : 720 pixels
Height : 400 pixels
Display aspect ratio : 16:9
Frame rate : 25.000 fps
Color space : YUV
Chroma subsampling : 4:2:0
Bit depth : 8 bits
Scan type : Progressive
Compression mode : Lossy
Bits/(Pixel*Frame) : 0.198
Stream size : 63.3 MiB (91%)
Writing library : XviD 64
Audio
ID : 1
Format : MPEG Audio
Format version : Version 1
Format profile : Layer 3
Mode : Joint stereo
Codec ID : 55
Codec ID/Hint : MP3
Duration : 6mn 11s
Bit rate mode : Constant
Bit rate : 128 Kbps
Channel(s) : 2 channels
Sampling rate : 44.1 KHz
Compression mode : Lossy
Stream size : 5.65 MiB (8%)
Alignment : Split accross interleaves
Interleave, duration : 40 ms (1.00 video frame)
Interleave, preload duration : 501 ms

Скриншоты c названием фильма

Скриншоты

Я буду помнить тебя / I will find you
Страна: Россия
Жанр: авторская анимация
Год выпуска: 2012
Продолжительность: 00:03:50
Описание: Поссорившись со своим парнем, девушка уходит в лес, где встречает медведя, который становится ей другом. Но добром это не заканчивается...
Доп.информация: Музыка - "Estradasphere"
Качество видео: WEBRip
Формат видео: AVI
Видео: 2383 kbps, 720х400 (16:9), 25.000 fps, MPEG-4 (XviD)
Аудио: 128 kbps, 48.0 kHz, 2 channels, MPEG Audio (MP3)

MediaInfo

General
Complete name : I will find you (2012).avi
Format : AVI
Format/Info : Audio Video Interleave
File size : 34.6 MiB
Duration : 3mn 50s
Overall bit rate : 1 259 Kbps
Writing application : Lavf55.33.100
Video
ID : 0
Format : MPEG-4 Visual
Format profile : Advanced Simple@L5
Format settings, BVOP : No
Format settings, QPel : No
Format settings, GMC : No warppoints
Format settings, Matrix : Default (H.263)
Codec ID : XVID
Codec ID/Hint : XviD
Duration : 3mn 50s
Bit rate : 1 118 Kbps
Width : 720 pixels
Height : 400 pixels
Display aspect ratio : 16:9
Frame rate : 25.000 fps
Color space : YUV
Chroma subsampling : 4:2:0
Bit depth : 8 bits
Scan type : Progressive
Compression mode : Lossy
Bits/(Pixel*Frame) : 0.155
Stream size : 30.7 MiB (89%)
Writing library : XviD 64
Audio
ID : 1
Format : MPEG Audio
Format version : Version 1
Format profile : Layer 3
Mode : Joint stereo
Mode extension : MS Stereo
Codec ID : 55
Codec ID/Hint : MP3
Duration : 3mn 50s
Bit rate mode : Constant
Bit rate : 128 Kbps
Channel(s) : 2 channels
Sampling rate : 48.0 KHz
Compression mode : Lossy
Stream size : 3.52 MiB (10%)
Alignment : Aligned on interleaves
Interleave, duration : 24 ms (0.60 video frame)
Interleave, preload duration : 24 ms
Writing library : LAME3.99.5

Скриншоты c названием фильма

Скриншоты

Твёрдое и Нежное / Hard & Soft
Страна: Россия
Жанр: авторская анимация
Год выпуска: 2015
Продолжительность: 00:02:27
Описание: Секс, остроумно изображенный посредством "всплывающих окон".
Качество видео: WEBRip
Формат видео: AVI
Видео: 916 kbps, 720х400 (16:9), 25.000 fps, MPEG-4 (XviD)
Аудио: 192 kbps, 44.1 kHz, 2 channels, MPEG Audio (MP3)

MediaInfo

General
Complete name : Hard & Soft (2015).avi
Format : AVI
Format/Info : Audio Video Interleave
File size : 19.7 MiB
Duration : 2mn 27s
Overall bit rate : 1 118 Kbps
Writing library : VirtualDub build 35491/release
Video
ID : 0
Format : MPEG-4 Visual
Format profile : Advanced Simple@L4
Format settings, BVOP : 2
Format settings, QPel : No
Format settings, GMC : No warppoints
Format settings, Matrix : Default (H.263)
Codec ID : XVID
Codec ID/Hint : XviD
Duration : 2mn 27s
Bit rate : 916 Kbps
Width : 720 pixels
Height : 400 pixels
Display aspect ratio : 16:9
Frame rate : 25.000 fps
Color space : YUV
Chroma subsampling : 4:2:0
Bit depth : 8 bits
Scan type : Progressive
Compression mode : Lossy
Bits/(Pixel*Frame) : 0.127
Stream size : 16.1 MiB (82%)
Writing library : XviD 64
Audio
ID : 1
Format : MPEG Audio
Format version : Version 1
Format profile : Layer 3
Mode : Joint stereo
Codec ID : 55
Codec ID/Hint : MP3
Duration : 2mn 27s
Bit rate mode : Constant
Bit rate : 192 Kbps
Channel(s) : 2 channels
Sampling rate : 44.1 KHz
Compression mode : Lossy
Stream size : 3.37 MiB (17%)
Alignment : Split accross interleaves
Interleave, duration : 40 ms (1.00 video frame)
Interleave, preload duration : 500 ms

Скриншот c названием фильма

Скриншоты




Показать сообщения:    

Текущее время: 07-Дек 17:31

Часовой пояс: UTC + 3


Вы не можете начинать темы
Вы не можете отвечать на сообщения
Вы не можете редактировать свои сообщения
Вы не можете удалять свои сообщения
Вы не можете голосовать в опросах
Вы не можете прикреплять файлы к сообщениям
Вы не можете скачивать файлы