Луна / Luna / La Luna (Бернардо Бертолуччи / Bernardo Bertolucci) [1979, Италия, США, драма, DVDRip-AVC] MVO (Первый канал) + Original Eng


Статистика раздачи [Обновить пиров]
Размер:  1.42 GB   |    Зарегистрирован:  8 месяцев 18 дней   |    Скачан:  0 раз

Полного источника не было: Никогда

 
   
 
 
 

[Цитировать]

ЛунаLuna
La Luna

Страна: Италия, США
Жанр: драма
Год выпуска: 1979
Продолжительность: 02:16:24-Перевод: Профессиональный (многоголосый закадровый)
Первый канал

Cубтитры: нет
Оригинальная аудиодорожка: английский-Режиссер: Бернардо Бертолуччи / Bernardo Bertolucci
В ролях: Джилл Клейбёрг, Мэттью Бэрри, Фред Гуинн, Томас Милиан, Вероника Лазар, Роберто Бениньи, Ренато Сальватори, Алида Валли, Франко Читти, Карло Вердоне, Лаура Бетти-Описание: На оперную певицу-звезду буквально обрушиваются несчастья. От сердечного приступа умирает муж. Она берет с собой на гастроли сына-подростка и вдруг узнает, что он законченный наркоман. Певица теряет голос, но больше ее волнует другое. Она пытается любой ценой помочь сыну преодолеть ломку - пытаясь увлечь его собой, понимая, что это противоестественно...-Доп. информация:
О переводе: Перевод на трекере появляется впервые
Качество: IPTV (Первый канал)
На места цензуры - вставки озвучки двд
-Сэмпл: минута53сек-Качество видео: DVDRip
Формат видео: MKV
Видео: AVC, 720х384, 1,85:1, 25,000 кадров/сек, 1100 Кбит/сек
Аудио 1: AC-3, 48,0 КГц, 192 Кбит/сек, 2 канала (многоголосый Первый канал)
Аудио 2: AC-3, 48,0 КГц, 192 Кбит/сек, 2 канала (английская оригинальная дорожка)

MediaInfox264.log

x264.exe: --pass 2 --bitrate 1100 --preset veryslow --profile high --level 4.1 --aq-mode 2 --bframes 10 --threads 2 --partitions p8x8,b8x8,i8x8,i4x4 --subme 9 --lookahead-threads 2 --sar 1:1
avs [info]: 720x384p 1:1 @ 25/1 fps (cfr)
x264 [info]: using SAR=1/1
x264 [info]: using cpu capabilities: MMX2 SSE2Fast SSSE3 SSE4.1 Cache64
x264 [info]: profile High, level 4.1
x264 [info]: frame I:1238 Avg QP:17.95 size: 39906
x264 [info]: frame P:41003 Avg QP:20.93 size: 14293
x264 [info]: frame B:162366 Avg QP:23.56 size: 3017
x264 [info]: consecutive B-frames: 1.1% 2.0% 6.9% 12.6% 12.1% 58.7% 4.8% 0.9% 0.5% 0.2% 0.2%
x264 [info]: mb I I16..4: 6.0% 84.8% 9.2%
x264 [info]: mb P I16..4: 0.7% 8.4% 0.9% P16..4: 45.9% 25.2% 14.2% 0.0% 0.0% skip: 4.6%
x264 [info]: mb B I16..4: 0.0% 0.6% 0.1% B16..8: 43.3% 7.1% 1.7% direct: 4.5% skip:42.7% L0:42.4% L1:44.4% BI:13.2%
x264 [info]: 8x8 transform intra:84.1% inter:71.5%
x264 [info]: direct mvs spatial:97.4% temporal:2.6%
x264 [info]: coded y,uvDC,uvAC intra: 90.5% 88.0% 54.8% inter: 21.2% 31.2% 2.4%
x264 [info]: i16 v,h,dc,p: 41% 14% 7% 39%
x264 [info]: i8 v,h,dc,ddl,ddr,vr,hd,vl,hu: 12% 7% 4% 10% 15% 15% 13% 13% 11%
x264 [info]: i4 v,h,dc,ddl,ddr,vr,hd,vl,hu: 16% 6% 2% 9% 15% 16% 13% 12% 11%
x264 [info]: i8c dc,h,v,p: 36% 21% 24% 18%
x264 [info]: Weighted P-Frames: Y:7.2% UV:1.9%
x264 [info]: ref P L0: 42.6% 14.9% 17.8% 4.9% 4.8% 2.8% 3.1% 1.4% 1.5% 1.1% 1.2% 0.9% 1.0% 0.7% 0.9% 0.5%
x264 [info]: ref B L0: 78.5% 10.1% 3.6% 1.8% 1.3% 1.1% 0.9% 0.5% 0.4% 0.4% 0.3% 0.3% 0.3% 0.2% 0.1%
x264 [info]: ref B L1: 94.7% 5.3%
x264 [info]: kb/s:1099.94
encoded 204607 frames, 9.26 fps, 1099.94 kb/s
Общее
Уникальный идентификатор : 250380066914679967253099663146010607323 (0xBC5D7263C5110888BE333BA9A25CFEDB)
Полное имя : Луна.1979.DVDRip.mkv
Формат : Matroska
Версия формата : Version 2
Размер файла : 1,42 Гбайт
Продолжительность : 2 ч. 16 м.
Общий поток : 1486 Кбит/сек
Название фильма : Луна( Luna/La Luna).1979.DVDRip
Дата кодирования : UTC 2016-02-23 08:15:47
Программа кодирования : mkvmerge v8.3.0 ('Over the Horizon') 32bit
Библиотека кодирования : libebml v1.3.1 + libmatroska v1.4.2
Видео
Идентификатор : 1
Формат : AVC
Формат/Информация : Advanced Video Codec
Профиль формата : High@L4.1
Параметр CABAC формата : Да
Параметр ReFrames формата : 16 кадров
Идентификатор кодека : V_MPEG4/ISO/AVC
Продолжительность : 2 ч. 16 м.
Битрейт : 1100 Кбит/сек
Ширина : 720 пикселей
Высота : 384 пикселя
Соотношение сторон : 1,85:1
Режим частоты кадров : Постоянный
Частота кадров : 25,000 кадров/сек
Цветовое пространство : YUV
Субдискретизация насыщенности : 4:2:0
Битовая глубина : 8 бит
Тип развёртки : Прогрессивная
Бит/(Пиксели*Кадры) : 0.159
Размер потока : 1,02 Гбайт (72%)
Заголовок : Луна( Luna/La Luna).1979.DVDRip
Библиотека кодирования : x264 core 146 r2538 121396c
Настройки программы : cabac=1 / ref=16 / deblock=1:0:0 / analyse=0x3:0x113 / me=umh / subme=9 / psy=1 / psy_rd=1.00:0.00 / mixed_ref=1 / me_range=24 / chroma_me=1 / trellis=2 / 8x8dct=1 / cqm=0 / deadzone=21,11 / fast_pskip=1 / chroma_qp_offset=-2 / threads=2 / lookahead_threads=2 / sliced_threads=0 / nr=0 / decimate=1 / interlaced=0 / bluray_compat=0 / constrained_intra=0 / bframes=10 / b_pyramid=2 / b_adapt=2 / b_bias=0 / direct=3 / weightb=1 / open_gop=0 / weightp=2 / keyint=250 / keyint_min=25 / scenecut=40 / intra_refresh=0 / rc_lookahead=60 / rc=2pass / mbtree=1 / bitrate=1100 / ratetol=1.0 / qcomp=0.60 / qpmin=0 / qpmax=69 / qpstep=4 / cplxblur=20.0 / qblur=0.5 / ip_ratio=1.40 / aq=2:1.00
Язык : English
Default : Да
Forced : Нет
Аудио #1
Идентификатор : 2
Формат : AC-3
Формат/Информация : Audio Coding 3
Расширение режима : CM (complete main)
Параметр Endianness формата : Big
Идентификатор кодека : A_AC3
Продолжительность : 2 ч. 16 м.
Вид битрейта : Постоянный
Битрейт : 192 Кбит/сек
Каналы : 2 канала
Расположение каналов : Front: L R
Частота : 48,0 КГц
Частота кадров : 31,250 кадров/сек (1536 spf)
Метод сжатия : С потерями
Размер потока : 187 Мбайт (13%)
Заголовок : многоголосый Первый канал
Язык : Russian
Default : Да
Forced : Нет
Аудио #2
Идентификатор : 3
Формат : AC-3
Формат/Информация : Audio Coding 3
Расширение режима : CM (complete main)
Параметр Endianness формата : Big
Идентификатор кодека : A_AC3
Продолжительность : 2 ч. 16 м.
Вид битрейта : Постоянный
Битрейт : 192 Кбит/сек
Каналы : 2 канала
Расположение каналов : Front: L R
Частота : 48,0 КГц
Частота кадров : 31,250 кадров/сек (1536 spf)
Метод сжатия : С потерями
Размер потока : 187 Мбайт (13%)
Заголовок : оригинал
Язык : English
Default : Нет
Forced : Нет

Скриншоты

[teatrix.ru].t23031.torrent 
Торрент: Зарегистрирован [ 2016-03-21 00:34 ] · F1E51E5EC3E5094F76D11B9B4B55E08387F92B02

Скачать .torrent

Скачать

15 KB

Статус: проверено
Скачан: 0 раз
Размер: 1.42 GB
terms.php



Быстрый ответ

Имя:

      
Для отправки сообщений необходимо включить JavaScript
Показать сообщения:    

Текущее время: 08-Дек 07:09

Часовой пояс: UTC + 3


Вы можете начинать темы
Вы можете отвечать на сообщения
Вы не можете редактировать свои сообщения
Вы не можете удалять свои сообщения
Вы не можете голосовать в опросах
Вы не можете прикреплять файлы к сообщениям
Вы можете скачивать файлы