Отражение (Георгий Тараторкин) [2015 г., Вечер поэзии и фортепианной импровизации, TVRip] Малый зал Московской консерватории


 

[Цитировать]

Отражение Название театра: Малый зал Московской консерватории.
Год выпуска: 2015.
Жанр: Вечер поэзии и фортепианной импровизации.
Продолжительность: 01:31:14.
Режиссёр: Георгий Тараторкин.
Исполнители: Георгий Тараторкин, Владимир Свердлов-Ашкенази.
О спектакле:
Этот необыкновенный тандем - молодой пианист и композитор Владимир Свердлов-Ашкенази и знаменитый российский актер Георгий Тараторкин - сложился недавно, на фестивале в Санкт-Петербурге.
Обаятельный, тонкий, умный, Тараторкин - актер с особым достоинством и заразительным сценическим темпераментом, его любимыми авторами и сегодня остаются Достоевский и Блок, раскрылся еще и как талантливый мастер слова. Тараторкин читает негромко, сидя на стуле и это не столько выступление, сколько разговор со слушателями. "Незнакомка»", "В ресторане", "На железной дороге", "Балаган" - хрестоматийные блоковские произведения звучат в исполнении Георгия Тараторкина свежо, проникновенно.
Российский пианист и композитор, лауреат многих международных конкурсов, в том числе престижных Конкурса имени Королевы Елизаветы в Брюсселе и конкурса "Monte-Carlo Piano Masters", активно гастролирующий по всему миру, Владимир Свердлов-Ашкенази - один из немногих своих коллег, обладающий уникальным даром импровизации.
Музыкант сидит за роялем и чутко следит, как развивается партия чтеца. Вступает деликатно, ни в коем случае не прерывая чтения.

Дополнительная информация:
Страна: Россия .
Качество записи оставляет желать лучшего.
Релиз
Качество видео:...TVRip
Формат:.................AVI
Видео:..720x416 (1.73:1), 25 fps, DivX Codec 6.8.3 ~1997 kbps avg, 0.27 bit/pixel
Аудио:..44.100 kHz, MPEG Layer 3, 2 ch, ~128.00 kbps avg

Отчет MI

Общее
Полное имя : Otrazhenie_Malyj.zal.Moskovskoj.konservatorii.2015.DivX.TVRip.fenixclub.avi
Format : AVI
Format/Info : Audio Video Interleave
File size : 1.36 GiB
Duration : 1h 31mn
Overall bit rate : 2 135 Kbps
Video
ID : 0
Format : MPEG-4 Visual
Format settings, BVOP : 1
Format settings, QPel : No
Format settings, GMC : No warppoints
Format settings, Matrix : Default (H.263)
Codec ID : DX50
Codec ID/Hint : DivX 5
Duration : 1h 31mn
Bit rate : 1 997 Kbps
Width : 720 pixels
Height : 416 pixels
Display aspect ratio : 1.731
Frame rate : 25.000 fps
Color space : YUV
Chroma subsampling : 4:2:0
Bit depth : 8 bits
Scan type : Progressive
Compression mode : Lossy
Bits/(Pixel*Frame) : 0.267
Stream size : 1.27 GiB (94%)
Writing library : DivX 6.8.3-6.8.4 (UTC 2008-06-07)
Audio
ID : 1
Format : MPEG Audio
Format version : Version 1
Format profile : Layer 3
Mode : Joint stereo
Mode extension : MS Stereo
Codec ID : 55
Codec ID/Hint : MP3
Duration : 1h 31mn
Source duration : 1h 31mn
Bit rate mode : Constant
Bit rate : 128 Kbps
Channel(s) : 2 channels
Sampling rate : 44.1 KHz
Compression mode : Lossy
Stream size : 83.5 MiB (6%)
Alignment : Aligned on interleaves
Interleave, duration : 40 ms (1.00 video frame)
Writing library : LAME3.98.2

Скриншоты

Альтернативный хост




Показать сообщения:    

Текущее время: 05-Дек 01:16

Часовой пояс: UTC + 3


Вы не можете начинать темы
Вы не можете отвечать на сообщения
Вы не можете редактировать свои сообщения
Вы не можете удалять свои сообщения
Вы не можете голосовать в опросах
Вы не можете прикреплять файлы к сообщениям
Вы не можете скачивать файлы