(Classical/Minimalism) Philip Glass - Glassworlds [complete solo piano music] Vols.1-3 (6) [Nicolas Horvath] - 2015-2016, FLAC (image+.cue) lossless


 

[Цитировать]

• Philip Glass - Glassworlds •
complete solo piano music

Nicolas Horvath, piano
-

Vol.1

Жанр: Classical
Страна-производитель диска: EU
Год издания диска: 2015
Издатель (лейбл): Grand Piano
Номер по каталогу: GP677
Дата записи: 28-29.X.2013
Аудиокодек: FLAC
Тип рипа: image+.cue
Битрейт аудио: lossless
Продолжительность: 1:18'57"
Источник: собственный рип
Наличие сканов в содержимом раздачи: да (WEB)
Треклист:
Glassworks
01. I. Opening
Orphee Suite (arr. Paul Barnes)
02. I. The Cafe
03. II. Orphee's Bedroom
04. III. Journey to the Underworld
05. IV. Orphee and the Princess
06. V. Return to Orphee's House
07. VI. Orphee's Return
08. VII. Orphee's Bedroom - Reprise
09. Dreaming Awake
10. How Now

Лог создания рипа

Exact Audio Copy V1.0 beta 4 from 7. December 2014
EAC extraction logfile from 7. April 2015, 20:52
Philip Glass / Glassworlds Vol. 1
Used drive : TSSTcorpDVDWBD TS-LB23A Adapter: 1 ID: 0
Read mode : Secure
Utilize accurate stream : Yes
Defeat audio cache : Yes
Make use of C2 pointers : No
Read offset correction : 6
Overread into Lead-In and Lead-Out : No
Fill up missing offset samples with silence : Yes
Delete leading and trailing silent blocks : No
Null samples used in CRC calculations : Yes
Used interface : Native Win32 interface for Win NT & 2000
Used output format : User Defined Encoder
Selected bitrate : 128 kBit/s
Quality : High
Add ID3 tag : Yes
Command line compressor : C:\Program Files (x86)\Exact Audio Copy\Flac\flac.exe
Additional command line options : -T "COMMENT=Ripped by GFox" -V -8 %source%
TOC of the extracted CD
Track | Start | Length | Start sector | End sector
---------------------------------------------------------
1 | 0:00.00 | 6:16.05 | 0 | 28204
2 | 6:16.05 | 4:41.28 | 28205 | 49307
3 | 10:57.33 | 1:33.52 | 49308 | 56334
4 | 12:31.10 | 3:20.56 | 56335 | 71390
5 | 15:51.66 | 4:07.73 | 71391 | 89988
6 | 19:59.64 | 2:40.40 | 89989 | 102028
7 | 22:40.29 | 6:58.28 | 102029 | 133406
8 | 29:38.57 | 4:01.44 | 133407 | 151525
9 | 33:40.26 | 14:48.36 | 151526 | 218161
10 | 48:28.62 | 30:29.06 | 218162 | 355342
Range status and errors
Selected range
Filename D:\Downloads\Philip Glass - Glassworlds Vol. 1.wav
Peak level 99.5 %
Extraction speed 2.0 X
Range quality 100.0 %
Test CRC 55863EBF
Copy CRC 55863EBF
Copy OK
No errors occurred
AccurateRip summary
Track 1 not present in database
Track 2 not present in database
Track 3 not present in database
Track 4 not present in database
Track 5 not present in database
Track 6 not present in database
Track 7 not present in database
Track 8 not present in database
Track 9 not present in database
Track 10 not present in database
None of the tracks are present in the AccurateRip database
End of status report
==== Log checksum 3C5937962FA5336F99C67CF576208026366A44CE22089ACEF48AE8F56CC734EC ====

Vol.2

Жанр: Classical
Страна-производитель диска: Germany
Год издания диска: 2015
Издатель (лейбл): Grand Piano
Номер по каталогу: GP690
Дата записи: 27.III&3&8.IV.2015
Аудиокодек: FLAC
Тип рипа: image+.cue
Битрейт аудио: lossless
Продолжительность: 1:23'23"
Источник: собственный рип
Наличие сканов в содержимом раздачи: да
Complete Etudes:
Book 1
01. Etude No.1
02. Etude No.2
03. Etude No.3
04. Etude No.4
05. Etude No.5
06. Etude No.6
07. Etude No.7
08. Etude No.8
09. Etude No.9
10. Etude No.10
Book 2
11. Etude No.11
12. Etude No.12
13. Etude No.13
14. Etude No.14
15. Etude No.15
16. Etude No.16
17. Etude No.17
18. Etude No.18
19. Etude No.19
20. Etude No.20

Лог создания рипа

Exact Audio Copy V1.0 beta 4 from 7. December 2014
EAC extraction logfile from 21. October 2015, 20:35
Philip Glass / Glassworlds Vol. 2
Used drive : TSSTcorpDVDWBD TS-LB23A Adapter: 1 ID: 0
Read mode : Secure
Utilize accurate stream : Yes
Defeat audio cache : Yes
Make use of C2 pointers : No
Read offset correction : 6
Overread into Lead-In and Lead-Out : No
Fill up missing offset samples with silence : Yes
Delete leading and trailing silent blocks : No
Null samples used in CRC calculations : Yes
Used interface : Native Win32 interface for Win NT & 2000
Used output format : User Defined Encoder
Selected bitrate : 128 kBit/s
Quality : High
Add ID3 tag : Yes
Command line compressor : C:\Program Files (x86)\Exact Audio Copy\Flac\flac.exe
Additional command line options : -T "COMMENT=Ripped by GFox" -V -8 %source%
TOC of the extracted CD
Track | Start | Length | Start sector | End sector
---------------------------------------------------------
1 | 0:00.00 | 3:33.18 | 0 | 15992
2 | 3:33.18 | 3:03.00 | 15993 | 29717
3 | 6:36.18 | 3:53.45 | 29718 | 47237
4 | 10:29.63 | 3:27.00 | 47238 | 62762
5 | 13:56.63 | 4:19.15 | 62763 | 82202
6 | 18:16.03 | 3:15.00 | 82203 | 96827
7 | 21:31.03 | 3:51.00 | 96828 | 114152
8 | 25:22.03 | 5:43.15 | 114153 | 139892
9 | 31:05.18 | 2:11.00 | 139893 | 149717
10 | 33:16.18 | 5:18.45 | 149718 | 173612
11 | 38:34.63 | 4:02.60 | 173613 | 191822
12 | 42:37.48 | 4:29.30 | 191823 | 212027
13 | 47:07.03 | 3:23.00 | 212028 | 227252
14 | 50:30.03 | 3:34.45 | 227253 | 243347
15 | 54:04.48 | 3:07.30 | 243348 | 257402
16 | 57:12.03 | 4:59.15 | 257403 | 279842
17 | 62:11.18 | 6:14.60 | 279843 | 307952
18 | 68:26.03 | 3:13.45 | 307953 | 322472
19 | 71:39.48 | 5:02.45 | 322473 | 345167
20 | 76:42.18 | 6:40.57 | 345168 | 375224
Range status and errors
Selected range
Filename D:\Downloads\Philip Glass - Glassworlds Vol. 2.wav
Peak level 83.1 %
Extraction speed 1.8 X
Range quality 100.0 %
Test CRC 95CDC30D
Copy CRC 95CDC30D
Copy OK
No errors occurred
AccurateRip summary
Track 1 not present in database
Track 2 not present in database
Track 3 not present in database
Track 4 not present in database
Track 5 not present in database
Track 6 not present in database
Track 7 not present in database
Track 8 not present in database
Track 9 not present in database
Track 10 not present in database
Track 11 not present in database
Track 12 not present in database
Track 13 not present in database
Track 14 not present in database
Track 15 not present in database
Track 16 not present in database
Track 17 not present in database
Track 18 not present in database
Track 19 not present in database
Track 20 not present in database
None of the tracks are present in the AccurateRip database
End of status report
==== Log checksum A4A2B1B948A607C8C9A9F8F10AF85910711E439C7127F56677BB2BCF3F4F7675 ====

Vol.3

Жанр: Classical
Страна-производитель диска: Germany
Год издания диска: 2016
Издатель (лейбл): Grand Piano
Номер по каталогу: GP691
Дата записи: 24.III.2014&29.VI.2015
Аудиокодек: FLAC
Тип рипа: image+.cue
Битрейт аудио: lossless
Продолжительность: 1:17'02"
Источник: собственный рип
Наличие сканов в содержимом раздачи: да
Треклист:
Metamorphosis I
01. Metamorphosis I
02. Metamorphosis II
03. Metamorphosis III
04. Metamorphosis IV
05. Metamorphosis V
06. The Olympian - Lighting of the Torch and Closing
Trilogy Sonata
07. III. Akhnaten, Act III, Scene 3: Dance
08. The Late, Great Johnny Ace: Coda
Trilogy Sonata
09. II. Satyagraha, Act III: Conclusion
10. A Secret Solo
Trilogy Sonata
11. I. Einstein on the Beach: Knee Play No.4
12. Two Pages
13. Piano Sonatina No.2

Лог создания рипа

Exact Audio Copy V1.0 beta 4 from 7. December 2014
EAC extraction logfile from 18. February 2016, 23:52
Philip Glass / Glassworlds Vol. 3
Used drive : TSSTcorpDVDWBD TS-LB23A Adapter: 1 ID: 0
Read mode : Secure
Utilize accurate stream : Yes
Defeat audio cache : Yes
Make use of C2 pointers : No
Read offset correction : 6
Overread into Lead-In and Lead-Out : No
Fill up missing offset samples with silence : Yes
Delete leading and trailing silent blocks : No
Null samples used in CRC calculations : Yes
Used interface : Native Win32 interface for Win NT & 2000
Used output format : User Defined Encoder
Selected bitrate : 128 kBit/s
Quality : High
Add ID3 tag : Yes
Command line compressor : C:\Program Files (x86)\Exact Audio Copy\Flac\flac.exe
Additional command line options : -T "COMMENT=Ripped by GFox" -V -8 %source%
TOC of the extracted CD
Track | Start | Length | Start sector | End sector
---------------------------------------------------------
1 | 0:00.00 | 7:16.20 | 0 | 32719
2 | 7:16.20 | 7:17.44 | 32720 | 65538
3 | 14:33.64 | 3:26.65 | 65539 | 81053
4 | 18:00.54 | 9:57.11 | 81054 | 125839
5 | 27:57.65 | 6:05.68 | 125840 | 153282
6 | 34:03.58 | 3:17.56 | 153283 | 168113
7 | 37:21.39 | 5:03.69 | 168114 | 190907
8 | 42:25.33 | 2:04.12 | 190908 | 200219
9 | 44:29.45 | 8:38.65 | 200220 | 239134
10 | 53:08.35 | 2:05.35 | 239135 | 248544
11 | 55:13.70 | 6:08.49 | 248545 | 276193
12 | 61:22.44 | 12:52.33 | 276194 | 334126
13 | 74:15.02 | 2:46.73 | 334127 | 346649
Range status and errors
Selected range
Filename D:\Downloads\Philip Glass - Glassworlds Vol. 3.wav
Peak level 100.0 %
Extraction speed 1.8 X
Range quality 100.0 %
Test CRC 5E4DACE3
Copy CRC 5E4DACE3
Copy OK
No errors occurred
AccurateRip summary
Track 1 not present in database
Track 2 not present in database
Track 3 not present in database
Track 4 not present in database
Track 5 not present in database
Track 6 not present in database
Track 7 not present in database
Track 8 not present in database
Track 9 not present in database
Track 10 not present in database
Track 11 not present in database
Track 12 not present in database
Track 13 not present in database
None of the tracks are present in the AccurateRip database
End of status report
==== Log checksum 0613636AE4C60BDC662A44BAABF97ACAA6A1E3392223052AC80EDA3AB9B7261A ====
-Доп. информация: Лауреат конкурса имени Скрябина французский пианист Николя Хорвати лейбл Grand Piano представляют проект Glassworlds - полное собрание сольной фортепианной музыки Филипа Гласса.
Раздача будет вестись путем добавления новых томов. На сегодняшний день издано 3 из 6 томов полного собрания фортепианных работ Гласса.
-
  • Glassworlds Vol.1: Opening, Orphee Suite, Dreaming Awake, How Now
  • Glassworlds Vol.2: Complete Etudes Nos.1-20
  • Glassworlds Vol.3: Metamorphosis, The Olypian, Trilogy Sonata, 2 Pages
  • Glassworlds Vol.4: The Hours, Modern Love Waltz, Notes on a Scandal, Music in Fifths
  • Glassworlds Vol.5: Mad Rush, 600 lines
  • Glassworlds Vol.6: TBA-



  • Показать сообщения:    

    Текущее время: 11-Дек 03:16

    Часовой пояс: UTC + 3


    Вы не можете начинать темы
    Вы не можете отвечать на сообщения
    Вы не можете редактировать свои сообщения
    Вы не можете удалять свои сообщения
    Вы не можете голосовать в опросах
    Вы не можете прикреплять файлы к сообщениям
    Вы не можете скачивать файлы