(Classical) Giulio Regondi - Complete Solo Guitar Music - Alberto Mesirca - 2014, FLAC (image+.cue) lossless


 

[Цитировать]

Giulio Regondi - Complete Solo Guitar Music - Alberto Mesirca
Жанр: Classical
Год издания диска: 2014
Издатель (лейбл): Brilliant Classics
Номер по каталогу: 94841
Дата записи: 2013
Аудиокодек: FLAC
Тип рипа: image+.cue
Битрейт аудио: lossless
Продолжительность: 1:48:17
Источник: собственный рип
Наличие сканов в содержимом раздачи: да
Треклист:
Giulio Regondi (1822-1872)
CD1
[1] Feuille d'album
[2] Reverie - Nocturne, Op.19
[3] Fete villageoise - Rondo caprice, Op.20
[4] Premier Air varie, Op.21
[5] Deuxieme Air varie, Op.22
[6] Introduction et caprice, Op.23
CD2
[1] Air varie de l'opera de Bellini 'I Capuleti e i Montecchi'
[2] Solo on 'Don Giovanni'
[3]-[12] Etudes
Исполнители:
Alberto Mesirca guitar

Лог создания рипа: CD1

Exact Audio Copy V1.0 beta 3 from 29. August 2011
EAC extraction logfile from 3. June 2015, 20:03
Alberto Mesirca / Regondi - Complete Solo Guitar Music - CD1
Used drive : HL-DT-STDVDRAM GU70N Adapter: 0 ID: 0
Read mode : Secure
Utilize accurate stream : Yes
Defeat audio cache : Yes
Make use of C2 pointers : No
Read offset correction : 48
Overread into Lead-In and Lead-Out : No
Fill up missing offset samples with silence : Yes
Delete leading and trailing silent blocks : No
Null samples used in CRC calculations : Yes
Used interface : Native Win32 interface for Win NT & 2000
Used output format : User Defined Encoder
Selected bitrate : 128 kBit/s
Quality : High
Add ID3 tag : No
Command line compressor : C:\Program Files (x86)\Exact Audio Copy\Flac\flac.exe
Additional command line options : -V -8 -T "Date=%year%" -T "Genre=%genre%" %source%
TOC of the extracted CD
Track | Start | Length | Start sector | End sector
---------------------------------------------------------
1 | 0:00.00 | 2:30.43 | 0 | 11292
2 | 2:30.43 | 8:59.07 | 11293 | 51724
3 | 11:29.50 | 6:28.01 | 51725 | 80825
4 | 17:57.51 | 9:16.20 | 80826 | 122545
5 | 27:13.71 | 11:32.65 | 122546 | 174510
6 | 38:46.61 | 9:09.59 | 174511 | 215744
Range status and errors
Selected range
Filename C:\temp\Regondi - Complete Solo Guitar Music\CD1\Regondi - Complete Solo Guitar Music - CD1.wav
Peak level 98.4 %
Extraction speed 4.9 X
Range quality 100.0 %
Test CRC A31ABD1B
Copy CRC A31ABD1B
Copy OK
No errors occurred
AccurateRip summary
Track 1 not present in database
Track 2 not present in database
Track 3 not present in database
Track 4 not present in database
Track 5 not present in database
Track 6 not present in database
None of the tracks are present in the AccurateRip database
End of status report
==== Log checksum 5FA7491F39C212AE31DFC68C84510A01B98832B4D31CF3B5427BA023015A765B ====

Лог создания рипа: CD2

Exact Audio Copy V1.0 beta 3 from 29. August 2011
EAC extraction logfile from 3. June 2015, 20:32
Alberto Mesirca / Regondi - Complete Solo Guitar Music - CD2
Used drive : HL-DT-STDVDRAM GU70N Adapter: 0 ID: 0
Read mode : Secure
Utilize accurate stream : Yes
Defeat audio cache : Yes
Make use of C2 pointers : No
Read offset correction : 48
Overread into Lead-In and Lead-Out : No
Fill up missing offset samples with silence : Yes
Delete leading and trailing silent blocks : No
Null samples used in CRC calculations : Yes
Used interface : Native Win32 interface for Win NT & 2000
Used output format : User Defined Encoder
Selected bitrate : 128 kBit/s
Quality : High
Add ID3 tag : No
Command line compressor : C:\Program Files (x86)\Exact Audio Copy\Flac\flac.exe
Additional command line options : -V -8 -T "Date=%year%" -T "Genre=%genre%" %source%
TOC of the extracted CD
Track | Start | Length | Start sector | End sector
---------------------------------------------------------
1 | 0:00.00 | 10:54.48 | 0 | 49097
2 | 10:54.48 | 9:52.55 | 49098 | 93552
3 | 20:47.28 | 2:55.30 | 93553 | 106707
4 | 23:42.58 | 4:46.51 | 106708 | 128208
5 | 28:29.34 | 3:43.73 | 128209 | 145006
6 | 32:13.32 | 6:58.19 | 145007 | 176375
7 | 39:11.51 | 2:01.40 | 176376 | 185490
8 | 41:13.16 | 5:40.01 | 185491 | 210991
9 | 46:53.17 | 2:21.37 | 210992 | 221603
10 | 49:14.54 | 4:09.31 | 221604 | 240309
11 | 53:24.10 | 2:40.62 | 240310 | 252371
12 | 56:04.72 | 4:16.27 | 252372 | 271598
Range status and errors
Selected range
Filename C:\temp\Regondi - Complete Solo Guitar Music\CD2\Regondi - Complete Solo Guitar Music - CD2.wav
Peak level 98.4 %
Extraction speed 5.2 X
Range quality 100.0 %
Test CRC 4A694505
Copy CRC 4A694505
Copy OK
No errors occurred
AccurateRip summary
Track 1 not present in database
Track 2 not present in database
Track 3 not present in database
Track 4 not present in database
Track 5 not present in database
Track 6 not present in database
Track 7 not present in database
Track 8 not present in database
Track 9 not present in database
Track 10 not present in database
Track 11 not present in database
Track 12 not present in database
None of the tracks are present in the AccurateRip database
End of status report
==== Log checksum C4ADC255C2F4196C51B62EDB67B5AB8AD18B340FFB649095E950899ED2D99928 ====



Показать сообщения:    

Текущее время: 03-Дек 16:43

Часовой пояс: UTC + 3


Вы не можете начинать темы
Вы не можете отвечать на сообщения
Вы не можете редактировать свои сообщения
Вы не можете удалять свои сообщения
Вы не можете голосовать в опросах
Вы не можете прикреплять файлы к сообщениям
Вы не можете скачивать файлы