(Classical) Paul Hindemith - Symphonie ‘Mathis der Maler’; Symphonie in Es - NDR Sinfonieorchester, Christoph Eschenbach - 2015, FLAC (image+.cue) lossless


 

[Цитировать]

Paul Hindemith - Symphonie ‘Mathis der Maler’; Symphonie in Es - NDR Sinfonieorchester, Christoph Eschenbach
Жанр: Classical
Страна-производитель диска: Finland
Год издания диска: 2015
Издатель (лейбл): Ondine
Номер по каталогу: ODE 1275-2
Дата записи: 2013
Аудиокодек: FLAC
Тип рипа: image+.cue
Битрейт аудио: lossless
Продолжительность: 67:32
Источник: собственный рип
Наличие сканов в содержимом раздачи: да
Треклист:
Paul Hindemith (1895–1963)
[1]-[3] Symphonie ‘Mathis der Maler’ (1933–34)
[4]-[7] Symphonie in Es (1940)
Исполнители:
NDR Sinfonieorchester
Christoph Eschenbach

Лог создания рипа

Exact Audio Copy V1.1 from 23. June 2015
EAC extraction logfile from 14. February 2016, 13:54
NDR Sinfonieorchester, Christoph Eschenbach / Hindemith - Symphonie 'Mathis der Maler', Symphonie in Es
Used drive : HL-DT-STDVDRAM GU70N Adapter: 1 ID: 0
Read mode : Secure
Utilize accurate stream : Yes
Defeat audio cache : Yes
Make use of C2 pointers : No
Read offset correction : 48
Overread into Lead-In and Lead-Out : No
Fill up missing offset samples with silence : Yes
Delete leading and trailing silent blocks : No
Null samples used in CRC calculations : Yes
Used interface : Native Win32 interface for Win NT & 2000
Used output format : User Defined Encoder
Selected bitrate : 128 kBit/s
Quality : High
Add ID3 tag : No
Command line compressor : C:\Program Files (x86)\Exact Audio Copy\Flac\flac.exe
Additional command line options : -V -8 -T "Date=%year%" -T "Genre=%genre%" %source%
TOC of the extracted CD
Track | Start | Length | Start sector | End sector
---------------------------------------------------------
1 | 0:00.02 | 9:24.60 | 2 | 42361
2 | 9:24.62 | 6:21.19 | 42362 | 70955
3 | 15:46.06 | 15:06.40 | 70956 | 138945
4 | 30:52.46 | 4:45.24 | 138946 | 160344
5 | 35:37.70 | 14:09.52 | 160345 | 224071
6 | 49:47.47 | 7:14.57 | 224072 | 256678
7 | 57:02.29 | 10:30.25 | 256679 | 303953
Range status and errors
Selected range
Filename C:\temp\Hindemith - Symphonie 'Mathis der Maler', Symphonie in Es\Hindemith - Symphonie 'Mathis der Maler', Symphonie in Es.wav
Peak level 97.9 %
Extraction speed 2.2 X
Range quality 99.9 %
Test CRC B7CD2280
Copy CRC B7CD2280
Copy OK
No errors occurred
AccurateRip summary
Track 1 not present in database
Track 2 not present in database
Track 3 not present in database
Track 4 not present in database
Track 5 not present in database
Track 6 not present in database
Track 7 not present in database
None of the tracks are present in the AccurateRip database
End of status report
==== Log checksum CAA2AD1EAF28CCFA3C87A3CE86EC2C2A19E1C6B4A58F5DF52E8EF514D6FF0343 ====



Показать сообщения:    

Текущее время: 09-Дек 22:25

Часовой пояс: UTC + 3


Вы не можете начинать темы
Вы не можете отвечать на сообщения
Вы не можете редактировать свои сообщения
Вы не можете удалять свои сообщения
Вы не можете голосовать в опросах
Вы не можете прикреплять файлы к сообщениям
Вы не можете скачивать файлы