Черные души / Anime nere / Black Souls (Франческо Мунци / Francesco Munzi) [2014, Италия, драма, криминал, BDRip] VO (Белов)


 

[Цитировать]

Черные души / Anime nere / Black Souls
Страна: Италия
Жанр: драма, криминал
Год выпуска: 2014
Продолжительность: 01:48:55
Перевод: Одноголосый закадровый - Вадим Белов
Cубтитры: итальянские (изначально вшитые)

Режиссер: Франческо Мунци / Francesco Munzi
В ролях: Марко Леонарди, Пеппино Маззотта, Фабрицио Ферракане, Барбора Бобулова, Анна Ферруццо, Джузеппе Фумо, Паскуале Ромео, , Аврора Кваттрокки, Карлос Бардем
Описание: Итальянская драма о жестокости калабрийской мафии. Фильм рассказывает о трех братьях, которые живут в довольно дикой местности, до сих пор выращивают коз, но при этом вовлечены в торговлю наркотиками. Психологический интерес режиссера — особенности социальных и психологических черт жителей итальянской провинции, их средневековые понятия о чести, долге, семье, жестокости, которые до сих пор оказывают огромное влияние на их жизни, но не уводят в изоляцию. Странным образом феодальные понятия остаются живучими в век международной торговли наркотиками. Ну и, разумеется, ломают жизни. Мотив кровной мести проходит сквозь целые поколения, ради нее можно пойти на все, наплевав на любую власть.

Качество видео: BDRip [ANIME.NERE.2014.1080p.BD-Remux.HDCLUB]
Формат видео: AVI
Видео: 720x304 (2.37:1), 24 fps, XviD build 73 ~1459 kbps avg, 0.28 bit/pixel
Аудио: 48 kHz, AC3 Dolby Digital, 3/2 (L,C,R,l,r) + LFE ch, ~448 kbps

MediaInfo

Общее
Полное имя : H:\Anime.nere.bdrip_[1.46]_[teko].avi
Формат : AVI
Формат/Информация : Audio Video Interleave
Размер файла : 1,46 Гбайт
Продолжительность : 1 ч. 48 м.
Общий поток : 1917 Кбит/сек
Программа кодирования : VirtualDubMod 1.5.10.3 | www.virtualdub-fr.org || (build 2550/release)
Библиотека кодирования : VirtualDubMod build 2550/release
Видео
Идентификатор : 0
Формат : MPEG-4 Visual
Профиль формата : Advanced Simple@L5
Параметр BVOP формата : 2
Параметр QPel формата : Нет
Параметр GMC формата : Без точки перехода
Параметр матрицы формата : Выборочная
Идентификатор кодека : XVID
Идентификатор кодека/Подсказка : XviD
Продолжительность : 1 ч. 48 м.
Битрейт : 1459 Кбит/сек
Ширина : 720 пикселей
Высота : 304 пикселя
Соотношение сторон : 2,35:1
Частота кадров : 24,000 кадра/сек
Цветовое пространство : YUV
Субдискретизация насыщенности : 4:2:0
Битовая глубина : 8 бит
Тип развёртки : Прогрессивная
Метод сжатия : С потерями
Бит/(Пиксели*Кадры) : 0.278
Размер потока : 1,11 Гбайт (76%)
Библиотека кодирования : XviD 73
Аудио
Идентификатор : 1
Формат : AC-3
Формат/Информация : Audio Coding 3
Расширение режима : CM (complete main)
Параметр Endianness формата : Big
Идентификатор кодека : 2000
Продолжительность : 1 ч. 48 м.
Вид битрейта : Постоянный
Битрейт : 448 Кбит/сек
Каналы : 6 каналов
Расположение каналов : Front: L C R, Side: L R, LFE
Частота : 48,0 КГц
Битовая глубина : 16 бит
Метод сжатия : С потерями
Размер потока : 349 Мбайт (23%)
Выравнивание : Разделение по промежуткам
Продолжительность промежутка : 42 мс. (1,00 видеокадр)
Время предзагрузки промежутка : 500 мс.



Показать сообщения:    

Текущее время: 11-Дек 05:19

Часовой пояс: UTC + 3


Вы не можете начинать темы
Вы не можете отвечать на сообщения
Вы не можете редактировать свои сообщения
Вы не можете удалять свои сообщения
Вы не можете голосовать в опросах
Вы не можете прикреплять файлы к сообщениям
Вы не можете скачивать файлы