Белый Бог / Fehér isten / Feher isten / White God (Корнел Мундруцо / Kornél Mundruczó) [2014, Венгрия, Германия, Швеция, драма, BDRip-AVC] MVO (XXI)


 

[Цитировать]

Белый БогFehér isten- Год выпуска: 2014
Страна: Венгрия, Германия, Швеция
Жанр: драма-Продолжительность: 02:00:50
Перевод: Профессиональный (многоголосый закадровый) XXI / R5
Оригинальная аудиодорожка: отсутствует-Режиссёр: Корнель Мундруцо / Kornél Mundruczó
В ролях: Cофия Пшотта, Люк и Боди, Шандор Жотер, Лили Хорват, Сабольч Туроци, Лили Монори, Гергей Банки, Тамаш Полгар, Карой Ашер, Эрика Боднар и др.-Описание: Главная героиня после отъезда матери в Австралию осталась с отцом, а отец не рад ее собаке Хагену. К тому же, пес не поставлен на учет, и за ним начинает охоту санитарная инспекция. Сбежав от хозяйки, Хаген переживает серию передряг, а потом оказывается в собачьем приюте, где поднимает восстание против бесчеловечности тех, кто там работает.- -Все раздачи фильма | Sample-Качество: BDRip-AVC (источник: Fehér isten 2014 1080p Blu-ray AVC DTS-HD MA 5.1-HDBits)
Формат: MKV
Видео: x264, 1024x428 (2.40:1), 24 fps, ~1530 kbps
Аудио: Russian 48.0 KHz, AС3 , 2 channels, 192 Kbps |XXI|
Субтитры: отсутствуют-

MediaInfo

General
Unique ID : 225021222660229270714206084813151389244 (0xA94982D66D4FAE05AE90846A0025C63C)
Complete name : D:\Фильмы\Fehér.isten.2014.BDRip-AVC.x264.AC3.-Cézar.mkv
Format : Matroska
Format version : Version 4 / Version 2
File size : 1.45 GiB
Duration : 2h 0mn
Overall bit rate : 1 724 Kbps
Movie name : Белый Бог | Fehér isten (2014) - Release by Cézar
Encoded date : UTC 2016-02-20 14:53:30
Writing application : mkvmerge v6.1.0 ('Old Devil') built on Mar 4 2013 09:10:42
Writing library : libebml v1.3.0 + libmatroska v1.4.0
Attachements : cover.jpg
Video
ID : 1
Format : AVC
Format/Info : Advanced Video Codec
Format profile : High@L4.1
Format settings, CABAC : Yes
Format settings, ReFrames : 12 frames
Codec ID : V_MPEG4/ISO/AVC
Duration : 2h 0mn
Bit rate : 1 530 Kbps
Width : 1 024 pixels
Height : 428 pixels
Display aspect ratio : 2.40:1
Frame rate mode : Constant
Frame rate : 24.000 fps
Color space : YUV
Chroma subsampling : 4:2:0
Bit depth : 8 bits
Scan type : Progressive
Bits/(Pixel*Frame) : 0.145
Stream size : 1.26 GiB (87%)
Title : Encoded by Cézar
Writing library : x264 core 142 r2431 ac76440
Encoding settings : cabac=1 / ref=12 / deblock=1:-2:-2 / analyse=0x3:0x113 / me=umh / subme=11 / psy=1 / psy_rd=1.00:0.03 / mixed_ref=1 / me_range=48 / chroma_me=1 / trellis=2 / 8x8dct=1 / cqm=0 / deadzone=21,11 / fast_pskip=1 / chroma_qp_offset=-6 / threads=12 / lookahead_threads=3 / sliced_threads=0 / nr=0 / decimate=1 / interlaced=0 / bluray_compat=0 / constrained_intra=0 / bframes=13 / b_pyramid=2 / b_adapt=2 / b_bias=0 / direct=1 / weightb=1 / open_gop=0 / weightp=2 / keyint=240 / keyint_min=22 / scenecut=40 / intra_refresh=0 / rc_lookahead=60 / rc=2pass / mbtree=1 / bitrate=1530 / ratetol=1.0 / qcomp=0.70 / qpmin=0 / qpmax=69 / qpstep=4 / cplxblur=20.0 / qblur=0.5 / vbv_maxrate=14000 / vbv_bufsize=14000 / nal_hrd=none / filler=0 / ip_ratio=1.40 / aq=1:0.80
Language : Hungarian
Default : Yes
Forced : No
Color range : Limited
Color primaries : BT.709
Transfer characteristics : BT.709
Matrix coefficients : BT.709
Audio
ID : 2
Format : AC-3
Format/Info : Audio Coding 3
Mode extension : CM (complete main)
Format settings, Endianness : Big
Codec ID : A_AC3
Duration : 2h 0mn
Bit rate mode : Constant
Bit rate : 192 Kbps
Channel(s) : 2 channels
Channel positions : Front: L R
Sampling rate : 48.0 KHz
Bit depth : 16 bits
Compression mode : Lossy
Stream size : 166 MiB (11%)
Title : MVO (XXI)
Language : Russian
Default : Yes
Forced : No
Menu
00:00:00.000 : en:Chapter 1
00:06:15.542 : en:Chapter 2
00:16:31.500 : en:Chapter 3
00:22:34.375 : en:Chapter 4
00:28:38.208 : en:Chapter 5
00:35:37.542 : en:Chapter 6
00:42:55.833 : en:Chapter 7
00:50:33.958 : en:Chapter 8
00:58:14.667 : en:Chapter 9
01:05:13.792 : en:Chapter 10
01:14:07.458 : en:Chapter 11
01:21:59.417 : en:Chapter 12
01:29:01.375 : en:Chapter 13
01:37:57.125 : en:Chapter 14
01:47:09.458 : en:Chapter 15
01:55:33.417 : en:Chapter 16

Скриншоты

-



Показать сообщения:    

Текущее время: 06-Дек 17:09

Часовой пояс: UTC + 3


Вы не можете начинать темы
Вы не можете отвечать на сообщения
Вы не можете редактировать свои сообщения
Вы не можете удалять свои сообщения
Вы не можете голосовать в опросах
Вы не можете прикреплять файлы к сообщениям
Вы не можете скачивать файлы