(Classical / Baroque / Orchestral) J.S.Bach, A.Vivaldi, Marcello, G.F.Telemann - Oboe Concertos (Vladimir Kurlin / Владимир Курлин - Oboe, Leningrad Camber Orchestra - Lazar Gosman / Лазарь Гозман, 1971, 1977) - 2000, FLAC (image+.cue) lossless


Статистика раздачи [Обновить пиров]
Размер:  305 MB   |    Зарегистрирован:  8 месяцев 13 дней   |    Скачан:  1 раз

Полного источника не было: 3 месяца 16 дней

 
   
 
 
 

[Цитировать]

A.Vivaldi, J.S. Bach, A. Marcello, G. Telemann, Concertos for oboe and orchestra
Владимир Курлин и Ленинградский камерный оркестр

Жанр: Baroque
Страна-производитель диска: Россия
Год издания диска: 2000
Издатель (лейбл): Manchester Files
Номер по каталогу: CDMAN159
ASIN: B004PGNL38
Дата записи: 1971-1977
Аудиокодек: FLAC
Тип рипа: image+.cue
Битрейт аудио: lossless
Продолжительность: 00:55:33
Источник: собственный рип
Наличие сканов в содержимом раздачи: да
Треклист:
Antonio Lucio Vivaldi
Concerto for oboe and string orchestra in A minor
01. Allegro [04:12]
02. Larghetto [04:44]
03. Allegro [03:13]
Johann Sebastian Bach
Brandenburg Concerto No.1 in F major BWV.1046
04. --- [04:33]
05. Adagio, Allegro [09:34]
06. Menuet [08:22]
Alessandro Marcello
Concerto for oboe and string orchestra in C minor
07. Allegro Moderato [03:39]
08. Adagio [05:25]
09. Allegro [03:14]
Georg-Philipp Telemann
Concerto for oboe, string orchestra and harpsichord in F minor
10. Allegro [03:36]
11. Largo e piano vivace [05:45]
Исполнители:
Ленинградский камерный оркестр
Лазарь Гозман - скрипка, дирижер;
Владимир Курлин - гобой;
Владимир Буяновский - валторна;
Владимир Шалыт - валторна;
Ольга Крылова - чимбало.
Релиз посвящен светлой памяти выдающегося исполнителя-виртуоза, педагога, профессора Влади́мира Миха́йловича Курли́на
В буклете производителя допущена ошибка:
Треклист поз. 7-9 звучит Concerto In D Minor For Oboe And String Orchestra. Композитор Alessandro Marcello.
Транскрипция для гобоя Johann Sebastian Bach.
Ни до ни после не слышал такого, ИМХО, мощного и виртуозно-проникновенного исполнения этого концерта...

Лог создания рипа

Exact Audio Copy V1.0 beta 3 from 29. August 2011
EAC extraction logfile from 5. June 2014, 14:23
Vladimir Kurlin / Concertos for Oboe and Orchestra
Used drive : TSSTcorpCDDVDW SN-208BB Adapter: 1 ID: 0
Read mode : Secure
Utilize accurate stream : Yes
Defeat audio cache : Yes
Make use of C2 pointers : No
Read offset correction : 6
Overread into Lead-In and Lead-Out : No
Fill up missing offset samples with silence : Yes
Delete leading and trailing silent blocks : No
Null samples used in CRC calculations : Yes
Used interface : Native Win32 interface for Win NT & 2000
Used output format : User Defined Encoder
Selected bitrate : 128 kBit/s
Quality : High
Add ID3 tag : No
Command line compressor : C:\Program Files (x86)\Exact Audio Copy\Flac\flac-1.3.0-x64-icl\flac.exe
Additional command line options : -V -8 -T "Date=%year%" -T "Genre=%genre%" %source%
TOC of the extracted CD
Track | Start | Length | Start sector | End sector
---------------------------------------------------------
1 | 0:00.00 | 4:11.14 | 0 | 18838
2 | 4:11.14 | 4:43.74 | 18839 | 40137
3 | 8:55.13 | 3:12.16 | 40138 | 54553
4 | 12:07.29 | 4:32.32 | 54554 | 74985
5 | 16:39.61 | 9:33.30 | 74986 | 117990
6 | 26:13.16 | 8:21.36 | 117991 | 155601
7 | 34:34.52 | 3:38.19 | 155602 | 171970
8 | 38:12.71 | 5:24.09 | 171971 | 196279
9 | 43:37.05 | 3:13.04 | 196280 | 210758
10 | 46:50.09 | 3:35.60 | 210759 | 226943
11 | 50:25.69 | 5:44.48 | 226944 | 252791
Range status and errors
Selected range
Filename D:\Musor\Vladimir Kurlin - Concertos for Oboe and Orchestra\Vladimir Kurlin - Concertos for Oboe and Orchestra.wav
Peak level 99.9 %
Extraction speed 3.2 X
Range quality 100.0 %
Test CRC 7AB0B84C
Copy CRC 7AB0B84C
Copy OK
No errors occurred
AccurateRip summary
Track 1 not present in database
Track 2 not present in database
Track 3 not present in database
Track 4 not present in database
Track 5 not present in database
Track 6 not present in database
Track 7 not present in database
Track 8 not present in database
Track 9 not present in database
Track 10 not present in database
Track 11 not present in database
None of the tracks are present in the AccurateRip database
End of status report
---- CUETools DB Plugin V2.1.3
[CTDB TOCID: lTodrkrTUUu7fU.3CGrYTvZtx5M-] found, Submit result: already submitted
[751fb627] (1/1) Accurately ripped
==== Log checksum CF414B7D02C4E55BAA1C95C7929AC3681CCDD0F0B34E6BFC851F7F76FFA69D4B ====

Содержание индексной карты (.CUE)

REM GENRE Classical
REM DATE 1977
REM DISCID 8C0D2A0B
REM COMMENT "ExactAudioCopy v1.0b3"
PERFORMER "Vladimir Kurlin"
TITLE "Concertos for Oboe and Orchestra"
FILE "Vladimir Kurlin - Concertos for Oboe and Orchestra.flac" WAVE
TRACK 01 AUDIO
TITLE "Concerto for oboe and string orchestra in a minor - Allegro"
PERFORMER "A. Vivaldi"
INDEX 01 00:00:00
TRACK 02 AUDIO
TITLE "Concerto for oboe and string orchestra in a minor - Larghetto"
PERFORMER "A. Vivaldi"
INDEX 01 04:11:14
TRACK 03 AUDIO
TITLE "Concerto for oboe and string orchestra in a minor - Allegro"
PERFORMER "A. Vivaldi"
INDEX 01 08:55:13
TRACK 04 AUDIO
TITLE "Brandenburg Concerto No.1 in F major - BWV 1046 - ---"
PERFORMER "J.S.Bach"
INDEX 00 12:04:27
INDEX 01 12:07:29
TRACK 05 AUDIO
TITLE "Brandenburg Concerto No.1 in F major - BWV 1046 - Adagio, Allegro"
PERFORMER "J.S.Bach"
INDEX 01 16:39:61
TRACK 06 AUDIO
TITLE "Brandenburg Concerto No.1 in F major - BWV 1046 - Menuet"
PERFORMER "J.S.Bach"
INDEX 00 26:13:15
INDEX 01 26:13:16
TRACK 07 AUDIO
TITLE "Concerto for oboe and string orchestra in c minor - Allegro Moderato"
PERFORMER "A. Marcello"
INDEX 00 34:31:64
INDEX 01 34:34:52
TRACK 08 AUDIO
TITLE "Concerto for oboe and string orchestra in c minor - Adagio"
PERFORMER "A. Marcello"
INDEX 01 38:12:71
TRACK 09 AUDIO
TITLE "Concerto for oboe and string orchestra in c minor - Allegro"
PERFORMER "A. Marcello"
INDEX 01 43:37:05
TRACK 10 AUDIO
TITLE "Concerto for oboe, string orchestra and harpsichord in f minor - Allegro"
PERFORMER "G.P.Telemann"
INDEX 00 46:47:30
INDEX 01 46:50:09
TRACK 11 AUDIO
TITLE "Concerto for oboe, string orchestra and harpsichord in f minor - Largo e pian..."
PERFORMER "G.P.Telemann"
INDEX 01 50:25:69

Лог проверки качества

-----------------------
DON'T MODIFY THIS FILE
-----------------------
PERFORMER: auCDtect Task Manager, ver. 1.6.0 RC1 build 1.6.0.1
Copyright (c) 2008-2010 y-soft. All rights reserved
http://y-soft.org
ANALYZER: auCDtect: CD records authenticity detector, version 0.8.2
Copyright (c) 2004 Oleg Berngardt. All rights reserved.
Copyright (c) 2004 Alexander Djourik. All rights reserved.
FILE: Vladimir Kurlin - Concertos for Oboe and Orchestra.flac
Size: 290103826 Hash: FC3DEA3F169E8472960711F1CE508D11 Accuracy: -m0
Conclusion: CDDA 100%
Signature: 6E70064526F353AC4F56589361712621EF581390

Скриншот спектра частот

Доп. информация:Владимир Курлин

Влади́мир Миха́йлович Курли́н (1933 - 1989) — российский советский гобоист и музыкальный педагог. Солист ЗКР АСО Ленинградской филармонии им. Д. Д. Шостаковича, оркестра театра оперы и балета им. С. М. Кирова, лауреат Международных конкурсов, профессор Ленинградской консерватории. Заслуженный артист РСФСР (1972) Заслуженный деятель искусств РСФСР (1983).
Биография:
Родился 3 марта 1933 года. Владимир Курлин окончил ССМШ при Ленинградской государственной консерватории имени А.Н.Римского-Корсакова по классу гобоя у Георгия Ивановича Амосова в 1950 году,Ленинградскую государственную консерваторию имени Н. А. Римского-Корсакова по классу Александра Андреевича Паршина в 1955 году. В 1953 году, ещё студентом консерватории, Владимир Курлин стал лауреатом первой премии Международного конкурса исполнителей на духовых инструментах имени Антонина Рейхи (музыкальный фестиваль «Пражская весна»). Позднее, в 1959 году, ему была также присуждена вторая премия Всемирного фестиваля молодёжи и студентов в Вене. В том же году Курлин окончил аспирантуру Ленинградской консерватории.
С 1951 по 1973 год Владимир Курлин играл в оркестре Ленинградского театра оперы и балета имени С.М. Кирова. В 1973 году он перешёл в Заслуженный коллектив России академический симфонический оркестр Ленинградской филармонии имени Д.Д. Шостаковича. Как оркестровый музыкант Курлин успешно исполнял многие наиболее известные сольные эпизоды гобоя в таких произведениях, как Пятая симфония Людвига Ван Бетховена, «Альпийская симфония» Р. Штрауса, Пятая симфония С.С. Прокофьева и увертюра Дж. Россини к опере «Шёлковая лестница».
«Глубоко мыслящий музыкант с яркой индивидуальностью, Курлин своим творчеством внёс новые черты в интерпретацию роли гобоя, трактовку оркестровых соло и концертный репертуар. Его исполнительскому стилю свойственен огромный диапазон выразительных средств — широкие динамические границы, богатство красок, яркая фразировка, виртуозная подвижность.»
— писал о Курлине Евгений Мравинский.
Помимо работы в оркестре, Владимир Курлин также занимался камерной музыкой. Он концертировал как с различными камерными ансамблями, так и сольно. В составе духового квинтета Ленинградской филармонии, в котором кроме него играли Лев Перепёлкин, Михаил Измайлов, Виталий Буяновский и Лев Печерский, он сыграл более ста концертов и сделал ряд аудиозаписей. Курлин — один из немногих в то время духовиков, регулярно выступавших с сольными концертами. С 1970 по 1974 гг. Владимир Курлин преподавал, по совместительству, в Петрозаводском филиале ЛОЛГК, где основал класс гобоя. Продолжая работать в ПФ ЛОЛГК на договорных условиях, осуществил выпуск молодых специалистов в 1975 и в 1977 году. Поддерживал творческие контакты с ПФ ЛОЛГК до 1989 года, путем оказания методической помощи классу гобоя, возглавляемому его учеником Виталием Фартушным. С 1972 года Владимир Курлин преподавал в ЛОЛГК имени Н. А. Римского-Корсакова. В 1977 году он утвержден в ученом звании доцента ( и.о. доцента с 1976 года), а в 1988 году — в ученом звании профессора (и.о. профессора с 1983 года). В качестве педагога Владимир Курлин привнёс много новых идей в методику преподавания игры на гобое.
29 ноября 1989 года Владимир Курлин трагически погиб в автокатастрофе возле города Бровары (Украина).Похоронен в СПб на Северном кладбище.
Награды и звания:
Лауреат первой премии Международного конкурса исполнителей на духовых инструментах им.Антонина Рейхи, в рамках музыкального фестиваля «Пражская весна» (1953)
Лауреат второй премии Всемирного фестиваля молодёжи и студентов в Вене (1959)
Заслуженный артист РСФСР (1972)
Заслуженный деятель искусств РСФСР (1983).
Медаль "250 лет Ленинграда" (1973)
Орден "Знак Почета" (1986)
[teatrix.ru].t23042.torrent 
Торрент: Зарегистрирован [ 2016-03-21 00:34 ] · EE85A9065D274DD7E377C75B96291D8620E84D23

Скачать .torrent

Скачать

13 KB

Статус: проверено
Скачан: 1 раз
Размер: 305 MB
terms.php



Быстрый ответ

Имя:

      
Для отправки сообщений необходимо включить JavaScript
Показать сообщения:    

Текущее время: 03-Дек 05:28

Часовой пояс: UTC + 3


Вы можете начинать темы
Вы можете отвечать на сообщения
Вы не можете редактировать свои сообщения
Вы не можете удалять свои сообщения
Вы не можете голосовать в опросах
Вы не можете прикреплять файлы к сообщениям
Вы можете скачивать файлы