(Choral music) Les Petits Chanteurs a la Croix de Bois - Les Plus Beaux Noels - 1995, FLAC (image+.cue) lossless


Статистика раздачи [Обновить пиров]
Размер:  365 MB   |    Зарегистрирован:  8 месяцев 20 дней   |    Скачан:  1 раз

Полного источника не было: 7 месяцев 18 дней

 
   
 
 
 

[Цитировать]

Les Petits Chanteurs a la Croix de Bois - Les Plus Beaux Noels
Жанр: Choral music
Страна-производитель диска: EU
Год издания диска: 1995
Издатель (лейбл): ERATO
Дата записи: 1959-1965
Аудиокодек: FLAC
Тип рипа: image+.cue
Битрейт аудио: lossless
Продолжительность: 01:08:40
Источник: собственный рип
Наличие сканов в содержимом раздачи: да
Треклист:
01. Douce Nuit, Sainte Nuit (2:10)
02. Marche des Rois, Noel Provencal (2:49)
03. La Nuit (4:30)
04. Les Anges dans Nos Campagnes (3:12)
05. Il Est Ne le Divin Enfant (3:33)
06. Ah! Quand Reviendra-T-Il le Temps de Noel (3:23)
07. Cest le Jour de La Noel (3:56)
08. Chanson Joyeuse de Noel (5:54)
09. Noel Nouveau Est Venu, Noel Savoyard (2:41)
10. Noel Bourguignon (2:00)
11. Chut! Taisez-Vous, Noel de Nicolas Saboly (3:27)
12. Votre Divin Maitre, Noel Wallon (4:06)
13. Les Bergerettes, Noel du XVIIIieme Siecle (1:55)
14. O Dieu de Clemence, Noel Suisse (3:34)
15. Le Sommeil de lEnfant Jesus (3:24)
16. Nous Voici dans La Ville (4:04)
17. Noel Nouvelet (3:18)
18. Pastourelles et Pastoureaux, Vieux Noel Angevin (3:22)
19. Allons Pastoureaux, Vieux Noel Languedocien (2:18)
20. Musette (5:01)

Исполнители:
Les Petits Chanteurs a la Croix de Bois
(The Little Singers of Paris \ Little Singers of the Wooden Cross)

Лог создания рипа

Exact Audio Copy V1.0 beta 3 from 29. August 2011
Отчёт EAC об извлечении, выполненном 20. февраля 2016, 20:27
Les Petits Chanteurs a la Croix de Bois / Les Plus Beaux Noels
Дисковод: ASUS DRW-1814BL Adapter: 1 ID: 1
Режим чтения : Достоверность
Использование точного потока : Да
Отключение кэша аудио : Да
Использование указателей C2 : Нет
Коррекция смещения при чтении : 6
Способность читать области Lead-in и Lead-out : Нет
Заполнение пропущенных сэмплов тишиной : Да
Удаление блоков с тишиной в начале и конце : Нет
При вычислениях CRC использовались нулевые сэмплы : Да
Интерфейс : Встроенный Win32-интерфейс для Win NT/2000
Выходной формат : Пользовательский кодировщик
Выбранный битрейт : 128 kBit/s
Качество : Высокий
Добавление ID3-тега : Нет
Утилита сжатия : C:\Program Files\Exact Audio Copy\Flac\flac.exe
Дополнительные параметры : -V -8 -T "Date=%year%" -T "Genre=%genre%" %source%
TOC извлечённого CD
Трек | Старт | Длительность | Начальный сектор | Конечный сектор
---------------------------------------------------------------------
1 | 0:00.32 | 2:10.08 | 32 | 9789
2 | 2:10.40 | 2:49.35 | 9790 | 22499
3 | 5:00.00 | 4:30.20 | 22500 | 42769
4 | 9:30.20 | 3:11.57 | 42770 | 57151
5 | 12:42.02 | 3:33.13 | 57152 | 73139
6 | 16:15.15 | 3:23.37 | 73140 | 88401
7 | 19:38.52 | 3:56.25 | 88402 | 106126
8 | 23:35.02 | 5:54.23 | 106127 | 132699
9 | 29:29.25 | 2:40.72 | 132700 | 144771
10 | 32:10.22 | 2:00.05 | 144772 | 153776
11 | 34:10.27 | 3:27.28 | 153777 | 169329
12 | 37:37.55 | 4:05.62 | 169330 | 187766
13 | 41:43.42 | 1:54.60 | 187767 | 196376
14 | 43:38.27 | 3:34.35 | 196377 | 212461
15 | 47:12.62 | 3:23.40 | 212462 | 227726
16 | 50:36.27 | 4:04.25 | 227727 | 246051
17 | 54:40.52 | 3:18.35 | 246052 | 260936
18 | 57:59.12 | 3:22.23 | 260937 | 276109
19 | 61:21.35 | 2:18.27 | 276110 | 286486
20 | 63:39.62 | 5:00.45 | 286487 | 309031
Характеристики диапазона извлечения и сообщения об ошибках
Выбранный диапазон
Имя файла C:\Documents and Settings\biotox\Рабочий стол\Новая папка (2)\Les Petits Chanteurs a la Croix de Bois - Les Plus Beaux Noels.wav
Пиковый уровень 95.7 %
Скорость извлечения 7.5 X
Качество диапазона 99.9 %
CRC теста 60B45878
CRC копии 60B45878
Копирование... OK
Ошибок не произошло
AccurateRip: сводка
Трек 1 : извлечено точно (доверие 1) [0D288654] (AR v2)
Трек 2 : извлечено точно (доверие 1) [1F5ED48B] (AR v2)
Трек 3 : извлечено точно (доверие 1) [1D1C9D66] (AR v2)
Трек 4 : извлечено точно (доверие 1) [3794D271] (AR v2)
Трек 5 : извлечено точно (доверие 1) [6EA2E1C4] (AR v2)
Трек 6 : извлечено точно (доверие 1) [CC41DD8F] (AR v2)
Трек 7 : извлечено точно (доверие 1) [2D028386] (AR v2)
Трек 8 : извлечено точно (доверие 1) [96CDB676] (AR v2)
Трек 9 : извлечено точно (доверие 1) [19F11DE9] (AR v2)
Трек 10 : извлечено точно (доверие 1) [78F3526C] (AR v2)
Трек 11 : извлечено точно (доверие 1) [68EADC8F] (AR v2)
Трек 12 : извлечено точно (доверие 1) [42A4EA09] (AR v2)
Трек 13 : извлечено точно (доверие 1) [C7F4137F] (AR v2)
Трек 14 : извлечено точно (доверие 1) [086425BF] (AR v2)
Трек 15 : извлечено точно (доверие 1) [5E517713] (AR v2)
Трек 16 : извлечено точно (доверие 1) [35C8FA2C] (AR v2)
Трек 17 : извлечено точно (доверие 1) [B2B737C9] (AR v2)
Трек 18 : извлечено точно (доверие 1) [7325A996] (AR v2)
Трек 19 : извлечено точно (доверие 1) [25B05D4B] (AR v2)
Трек 20 : извлечено точно (доверие 1) [AAA81BBB] (AR v2)
Все треки извлечены точно
Конец отчёта
==== Контрольная сумма отчёта 4D7A07A3A749BBBF6B2A98D62CB46A74FCFF1EC98A2E4457A6653F15B5113CA8 ====

Замер динамического диапазона

foobar2000 1.2.9 / Замер динамического диапазона (DR) 1.1.1
Дата отчёта: 2016-02-20 21:07:37
--------------------------------------------------------------------------------
Анализ: Les Petits Chanteurs a la Croix de Bois / Les Plus Beaux Noels
--------------------------------------------------------------------------------
DR Пики RMS Продолжительность трека
--------------------------------------------------------------------------------
DR11 -2.62 дБ -19.67 дБ 2:10 01-Douce Nuit, Sainte Nuit
DR10 -3.49 дБ -16.82 дБ 2:49 02-Marche des Rois, Noel Provencal
DR13 -3.78 дБ -23.83 дБ 4:30 03-La Nuit
DR10 -2.83 дБ -18.12 дБ 3:12 04-Les Anges dans Nos Campagnes
DR11 -0.90 дБ -18.02 дБ 3:33 05-Il Est Ne le Divin Enfant
DR10 -3.01 дБ -18.71 дБ 3:23 06-Ah! Quand Reviendra-T-Il le Temps de Noel
DR11 -2.58 дБ -20.12 дБ 3:56 07-Cest le Jour de La Noel
DR13 -1.74 дБ -20.25 дБ 5:54 08-Chanson Joyeuse de Noel
DR13 -1.88 дБ -18.95 дБ 2:41 09-Noel Nouveau Est Venu, Noel Savoyard
DR15 -1.28 дБ -21.60 дБ 2:00 10-Noel Bourguignon
DR12 -2.54 дБ -19.34 дБ 3:27 11-Chut! Taisez-Vous, Noel de Nicolas Saboly
DR11 -1.34 дБ -16.11 дБ 4:06 12-Votre Divin Maitre, Noel Wallon
DR13 -1.45 дБ -21.76 дБ 1:55 13-Les Bergerettes, Noel du XVIIIieme Siecle
DR11 -1.80 дБ -18.59 дБ 3:34 14-O Dieu de Clemence, Noel Suisse
DR12 -4.84 дБ -22.79 дБ 3:24 15-Le Sommeil de lEnfant Jesus
DR12 -3.53 дБ -20.74 дБ 4:04 16-Nous Voici dans La Ville
DR13 -2.81 дБ -21.06 дБ 3:18 17-Noel Nouvelet
DR11 -2.30 дБ -16.95 дБ 3:22 18-Pastourelles et Pastoureaux, Vieux Noel Angevin
DR13 -0.37 дБ -18.02 дБ 2:18 19-Allons Pastoureaux, Vieux Noel Languedocien
DR14 -0.55 дБ -21.51 дБ 5:01 20-Musette
--------------------------------------------------------------------------------
Количество треков: 20
Реальные значения DR: DR12
Частота: 44100 Гц
Каналов: 2
Разрядность: 16
Битрейт: 670 кбит/с
Кодек: FLAC
================================================================================
[teatrix.ru].t23043.torrent 
Торрент: Зарегистрирован [ 2016-03-21 00:34 ] · 64F9C57DD67B883B77D35851B6FEF8AC0DC94A22

Скачать .torrent

Скачать

15 KB

Статус: проверено
Скачан: 1 раз
Размер: 365 MB
terms.php



Быстрый ответ

Имя:

      
Для отправки сообщений необходимо включить JavaScript
Показать сообщения:    

Текущее время: 10-Дек 10:00

Часовой пояс: UTC + 3


Вы можете начинать темы
Вы можете отвечать на сообщения
Вы не можете редактировать свои сообщения
Вы не можете удалять свои сообщения
Вы не можете голосовать в опросах
Вы не можете прикреплять файлы к сообщениям
Вы можете скачивать файлы