[TR24][SM][OF] Hans Abrahamsen - Let Me Tell You - Barbara Hannigan, Symphonieorchester des Bayerischen Rundfunks, Andris Nelsons - 2016 (Classical)


Статистика раздачи [Обновить пиров]
Размер:  331 MB   |    Зарегистрирован:  8 месяцев 20 дней   |    Скачан:  2 раза

Полного источника не было: 14 дней

 
   
 
 
 

[Цитировать]

Hans Abrahamsen - Let Me Tell You - Barbara Hannigan, BRSO, Andris Nelsons
Композитор: Hans Abrahamsen
Год издания: 2016
Жанр: Classical
Издатель (лейбл)/ссылка на официальность: Winter & Winter
Продолжительность: 00:32:46
Наличие сканов: да
Контейнер: FLAC (*.flac)
Тип рипа: tracks
Разрядность: 24bit / 48,0kHz
Количество каналов: 2.0
Источник: скачано из сети (wath)-Исполнители:
Barbara Hannigan,
Symphonieorchester des Bayerischen Rundfunks
Andris Nelsons

Треклист:

Part I:
01. Let Me Tell You How It Was (03:51)
02. O but Memory Is Not One but Many (02:52)
03. There Was a Time, I Remember (06:00)
Part II:
04. Let Me Tell You How It Is (02:04)
05. Now I Do Not Mind (06:14)
Part III:
06. I Know You Are There (01:02)
07. I Will Go out Now (10:43)

Динамический диапазон - DR13:

foobar2000 1.3.2 / Замер динамического диапазона (DR) 1.1.1
Дата отчёта: 2016-02-21 14:43:07
--------------------------------------------------------------------------------
Анализ: Barbara Hannigan, Symphonieorchester des Bayerischen Rundfunks, Andris Nelsons / Hans Abrahamsen: Let Me Tell You
--------------------------------------------------------------------------------
DR Пики RMS Продолжительность трека
--------------------------------------------------------------------------------
DR14 -2.49 дБ -24.74 дБ 3:51 01-Part I: Let Me Tell You How It Was
DR13 -0.80 дБ -21.77 дБ 2:52 02-Part I: O but Memory Is Not One but Many
DR14 -3.12 дБ -24.41 дБ 6:00 03-Part I: There Was a Time, I Remember
DR12 -1.26 дБ -18.70 дБ 2:04 04-Part II: Let Me Tell You How It Is
DR13 -0.80 дБ -17.91 дБ 6:14 05-Part II: Now I Do Not Mind
DR10 -17.40 дБ -31.67 дБ 1:02 06-Part III: I Know You Are There
DR14 -4.98 дБ -25.78 дБ 10:43 07-Part III: I Will Go out Now
--------------------------------------------------------------------------------
Количество треков: 7
Реальные значения DR: DR13
Частота: 48000 Гц
Каналов: 2
Разрядность: 24
Битрейт: 1330 кбит/с
Кодек: FLAC
================================================================================
-
[teatrix.ru].t23044.torrent 
Торрент: Зарегистрирован [ 2016-03-21 00:34 ] · E98396C0FEB59C6DA47BA95D7D19301DF510F115

Скачать .torrent

Скачать

14 KB

Статус: проверено
Скачан: 2 раз
Размер: 331 MB
terms.php



Быстрый ответ

Имя:

      
Для отправки сообщений необходимо включить JavaScript
Показать сообщения:    

Текущее время: 10-Дек 06:08

Часовой пояс: UTC + 3


Вы можете начинать темы
Вы можете отвечать на сообщения
Вы не можете редактировать свои сообщения
Вы не можете удалять свои сообщения
Вы не можете голосовать в опросах
Вы не можете прикреплять файлы к сообщениям
Вы можете скачивать файлы