[TR24][SM][OF] Рахманинов - Всенощная Op. 37, Литургия Op. 31 (Санкт-Петербургский Камерный Хор, Николай Корнев) / Rachmaninov - Vespers, Op. 37 (St Petersburg Chamber Choir, Nikolai Korniev) - 2015 (Classical)


Статистика раздачи [Обновить пиров]
Размер:  820 MB   |    Зарегистрирован:  8 месяцев 15 дней   |    Скачан:  2 раза

Полного источника не было: 22 дня

 
   
 
 
 

[Цитировать]

Рахманинов - Всенощная Op. 37, Литургия Op. 31 (Санкт-Петербургский Камерный Хор, Николай Корнев) / Rachmaninov - Vespers, Op. 37 (St Petersburg Chamber Choir, Nikolai Korniev)
Композитор: Сергей Рахманинов / Sergey Rachmaninov
Год издания: 2015
Жанр: Classical
Издатель (лейбл)/ссылка на официальность: PentaTone / PTC 5186027
Продолжительность: 00:49:22
Наличие сканов: да
Контейнер: FLAC (*.flac)
Тип рипа: tracks
Разрядность: 24bit / 96,0kHz
Количество каналов: 2.0
Источник: скачано из сети (wath)-Исполнители:
St Petersburg Chamber Choir,
Nikolai Korniev

Треклист:

Vespers, Op.37:
01. I. Priidite, poklanimsya (O come, let us worship) (02:16)
02. II. Blagoslovi, dushe moya (Bless the Lord, O my soul) (04:59)
03. III. Blazen muzh (Blessed be the Man) (03:40)
04. IV. Svete tikhyi (O Jesus Christ) (02:51)
05. V. Nyne otpushchayeshi (Lord, now lettest Thou Thy Servant depart) (03:23)
06. VI. Bogoroditse Devo (Virgin, Mother of God) (02:28)
07. VII. Slava v vyshnikh Bogu (Glory to God in the highest) (02:30)
08. VIII. Khvalite imya Gospodne (Praise ye the name of the Lord) (01:45)
09. IX. Blagosloven esi, Gospodi (Glessed art Thou, o Lord) (05:12)
10. X. Voskreseniye Khristovo videvshe (Having beheld the Resurrection of Christ) (02:41)
11. XI. Velichit dusha moya Gospoda (My soul doth magnify the Lord) (06:19)
12. XII. Slava v vyshnikh Bogu (Glory to God in the highest) (06:47)
13. XIII. Voskres iz groba (Rising from the tomb) (03:03)
14. XIV. Vzbrannoy voevode (To thee, o the Mother of God) (01:28)

Динамический диапазон - DR14:

foobar2000 1.3.2 / Замер динамического диапазона (DR) 1.1.1
Дата отчёта: 2016-02-21 14:48:29
--------------------------------------------------------------------------------
Анализ: St Petersburg Chamber Choir, Nikolai Korniev / Rachmaninov: All-Night Vigil, Op. 37 'Vespers'
--------------------------------------------------------------------------------
DR Пики RMS Продолжительность трека
--------------------------------------------------------------------------------
DR13 -1.02 дБ -20.43 дБ 2:16 01-Vespers, Op.37: I. Priidite, poklanimsya (O come, let us worship)
DR15 -11.06 дБ -31.82 дБ 4:59 02-Vespers, Op.37: II. Blagoslovi, dushe moya (Bless the Lord, O my soul)
DR15 -2.19 дБ -26.84 дБ 3:40 03-Vespers, Op.37: III. Blazen muzh (Blessed be the Man)
DR13 -8.55 дБ -29.26 дБ 2:51 04-Vespers, Op.37: IV. Svete tikhyi (O Jesus Christ)
DR16 -0.05 дБ -25.44 дБ 3:23 05-Vespers, Op.37: V. Nyne otpushchayeshi (Lord, now lettest Thou Thy Servant depart)
DR15 -1.59 дБ -25.11 дБ 2:28 06-Vespers, Op.37: VI. Bogoroditse Devo (Virgin, Mother of God)
DR13 -8.63 дБ -29.85 дБ 2:30 07-Vespers, Op.37: VII. Slava v vyshnikh Bogu (Glory to God in the highest)
DR12 -2.96 дБ -21.26 дБ 1:45 08-Vespers, Op.37: VIII. Khvalite imya Gospodne (Praise ye the name of the Lord)
DR14 -2.18 дБ -24.59 дБ 5:12 09-Vespers, Op.37: IX. Blagosloven esi, Gospodi (Glessed art Thou, o Lord)
DR14 -0.60 дБ -22.33 дБ 2:41 10-Vespers, Op.37: X. Voskreseniye Khristovo videvshe (Having beheld the Resurrection of Christ)
DR17 -1.88 дБ -26.09 дБ 6:19 11-Vespers, Op.37: XI. Velichit dusha moya Gospoda (My soul doth magnify the Lord)
DR16 -0.98 дБ -23.61 дБ 6:47 12-Vespers, Op.37: XII. Slava v vyshnikh Bogu (Glory to God in the highest)
DR13 -6.98 дБ -25.91 дБ 3:03 13-Vespers, Op.37: XIII. Voskres iz groba (Rising from the tomb)
DR12 -2.19 дБ -19.32 дБ 1:28 14-Vespers, Op.37: XIV. Vzbrannoy voevode (To thee, o the Mother of God)
--------------------------------------------------------------------------------
Количество треков: 14
Реальные значения DR: DR14
Частота: 96000 Гц
Каналов: 2
Разрядность: 24
Битрейт: 2457 кбит/с
Кодек: FLAC
================================================================================
[teatrix.ru].t23045.torrent 
Торрент: Зарегистрирован [ 2016-03-21 00:34 ] · 54E9E9E5146DBEF48B051AA5D67144B173D4DB9C

Скачать .torrent

Скачать

18 KB

Статус: проверено
Скачан: 2 раз
Размер: 820 MB
terms.php



Быстрый ответ

Имя:

      
Для отправки сообщений необходимо включить JavaScript
Показать сообщения:    

Текущее время: 05-Дек 17:26

Часовой пояс: UTC + 3


Вы можете начинать темы
Вы можете отвечать на сообщения
Вы не можете редактировать свои сообщения
Вы не можете удалять свои сообщения
Вы не можете голосовать в опросах
Вы не можете прикреплять файлы к сообщениям
Вы можете скачивать файлы