Искусство быть счастливым / L'arte della felicità (Алессандро Рак /Alessandro Rak) [2013, Италия, драма, анимация, HDRip] Rus Sub


 

[Цитировать]

Искусство быть счастливым / L'arte della felicità
Страна: Италия
Жанр: драма, авторский, рисованная анимация
Продолжительность: 82 минуты
Год выпуска: 2013
Язык: итальянский
Субтитры: русские, английские
Режиссёр: Алессандро Рак /Alessandro Rak
Сценарист: Алессандро Рак, Лучиано Стелла
Художник: Иван Каппиелло, Марино Гуарньери, Алессандро Рак
Композитор: Антонио Фреза
Роли озвучивали: Леандро Амато, Нандо Паоне, Ренато Карпентьери,
Джан Ичикава, Лучио Аллочча
Описание: Пианист Серджио отказывается от своего призвания и становится таксистом в Неаполе после того как его старший брат Альфредо уезжает практиковать буддизм в Непал. Он проводит всё время в машине, выслушивая истории и размышления своих клиентов и слушает радиопрограмму «Искусство быть счастливым», собирая как пазл по кусочкам философию счастья.
Доп. информация: http://www.kinopoisk.ru/film/771837/
Семпл: http://multi-up.com/1089972
Качество: HDRip
Формат: MKV
Видео: AVC(H264) 1152х622, 24 fps, 2 500 Kbps, 8 bit
Аудио: AC3, 6 ch, 48 kHz, 448 kbps
Субтитры: Rus (ASS),Eng (ASS)

Подробные технические данные

Unique ID : 134405657410055838424889955587859715293 (0x651D968924225F207DA37921BCA094DD)
Complete name : d:\DOWNLOADS\!Moi Torenty\The art of Hapyness\L'Arte Della Felicita 720p H264 Ita Ac3 Sub Rus Eng.mkv
Format : Matroska
Format version : Version 2
File size : 1.72 GiB
Duration : 1h 24mn
Overall bit rate : 2 929 Kbps
Encoded date : UTC
Writing application : HandBrake 0.10.2 2015060900
Writing library : Lavf55.12.0 / Lavf55.12.0
Video #1
ID : 1
Format : AVC
Format/Info : Advanced Video Codec
Format profile : High@L4.1
Format settings, CABAC : Yes
Format settings, ReFrames : 7 frames
Codec ID : V_MPEG4/ISO/AVC
Duration : 1h 24mn
Bit rate : 2 500 Kbps
Width : 1 152 pixels
Height : 622 pixels
Display aspect ratio : 1.85:1
Original display aspect ratio : 1.85:1
Frame rate mode : Constant
Frame rate : 24.000 fps
Color space : YUV
Chroma subsampling : 4:2:0
Bit depth : 8 bits
Scan type : Progressive
Bits/(Pixel*Frame) : 0.145
Stream size : 1.43 GiB (83%)
Writing library : x264 core 142 r2479 dd79a61
Encoding settings : cabac=1 / ref=7 / deblock=1:0:0 / analyse=0x3:0x113 / me=umh / subme=9 / psy=1 / psy_rd=1.00:0.00 / mixed_ref=1 / me_range=24 / chroma_me=1 / trellis=1 / 8x8dct=1 / cqm=0 / deadzone=21,11 / fast_pskip=1 / chroma_qp_offset=-2 / threads=6 / lookahead_threads=1 / sliced_threads=0 / nr=0 / decimate=1 / interlaced=0 / bluray_compat=0 / constrained_intra=0 / bframes=7 / b_pyramid=2 / b_adapt=1 / b_bias=0 / direct=1 / weightb=1 / open_gop=0 / weightp=2 / keyint=240 / keyint_min=24 / scenecut=40 / intra_refresh=0 / rc_lookahead=40 / rc=2pass / mbtree=1 / bitrate=2500 / ratetol=1.0 / qcomp=0.60 / qpmin=0 / qpmax=69 / qpstep=4 / cplxblur=20.0 / qblur=0.5 / vbv_maxrate=62500 / vbv_bufsize=78125 / nal_hrd=none / filler=0 / ip_ratio=1.40 / aq=1:1.00
Default : Yes
Forced : No
Color range : Limited
Color primaries : BT.709
Transfer characteristics : BT.709
Matrix coefficients : BT.709
Audio #2
ID : 2
Format : AC-3
Format/Info : Audio Coding 3
Mode extension : CM (complete main)
Format settings, Endianness : Big
Codec ID : A_AC3
Duration : 1h 24mn
Bit rate mode : Constant
Bit rate : 448 Kbps
Channel(s) : 6 channels
Channel positions : Front: L C R, Side: L R, LFE
Sampling rate : 48.0 KHz
Compression mode : Lossy
Delay relative to video : 27ms
Stream size : 270 MiB (15%)
Title : Surround
Language : Italian
Default : Yes
Forced : No
Text #3
ID : 3
Format : ASS
Codec ID : S_TEXT/ASS
Codec ID/Info : Advanced Sub Station Alpha
Compression mode : Lossless
Language : English
Default : No
Forced : No
Text #4
ID : 4
Format : ASS
Codec ID : S_TEXT/ASS
Codec ID/Info : Advanced Sub Station Alpha
Compression mode : Lossless
Language : Russian
Default : Yes
Forced : No

Скриншот с названием фильма

Скриншоты




Показать сообщения:    

Текущее время: 11-Дек 05:20

Часовой пояс: UTC + 3


Вы не можете начинать темы
Вы не можете отвечать на сообщения
Вы не можете редактировать свои сообщения
Вы не можете удалять свои сообщения
Вы не можете голосовать в опросах
Вы не можете прикреплять файлы к сообщениям
Вы не можете скачивать файлы