Стравинский в Голливуде / Stravinsky in Hollywood (Марко Капалбо / Marco Capalbo) [2014, документальный, биографический, DVB] DVO (SDI Media)


Статистика раздачи [Обновить пиров]
Размер:  939 MB   |    Зарегистрирован:  8 месяцев 18 дней   |    Скачан:  0 раз

Полного источника не было: Никогда

 
   
 
 
 

[Цитировать]

Стравинский в Голливуде
Stravinsky in Hollywood- Дата/Год выпуска: 2014
Страна: Германия, Франция
Жанр: документальный, биографический
Продолжительность: 00:51:48
Перевод: Профессиональный (двухголосый закадровый)
Доп. инфо о переводе: Студия "SDI Media" по заказу телеканала "24 ДОК"
Русские субтитры: нет
Режиссер: Марко Капалбо / Marco Capalbo
Телеканал: 24 ДОКОписание: Русский композитор покинул Европу в 1939 году с чувством горечи и ощущением, что жизнь закончилась. В возрасте 57 лет, уже имея статус одного из самых выдающихся из живущих композиторов, попал в разряд создателей вырождающейся музыки и его произведения исполнялись гораздо реже. Еще за несколько месяцев до переезда он потерял свою мать, жену и дочь, которая умерла от туберкулеза.
22 сентября 1939 сел на корабль во Франции, где он тогда жил, и после трехнедельного путешествия, достиг берегов США. Он надеялся там начать новый этап своей карьеры. В Голливуде, несмотря на множество разочарований, композитор купил собственный дом и прожил в нем 30 лет. Подругой его жизни была вторая жена Вера, которая, как говорили, уже имела 20-летний опыт любовницы Стравинского еще до смерти его первой жены. Позже к ним присоединился еще Роберт Крафт, дирижер и первый секретарь, и можно себе представить все, что они делали вместе. Автор фильма, Марко Капабло говорит, что фильм не только о композиторе, но и человеке. В фильме создан интригующий портрет композитора. (анонс канала "24 ДОК")
Доп. информация: Eutelsat 36B (W7) DVB-S

качество: DVB
формат: MKV
Видео: MPEG Video 2, 720x576 (4:3), 25 fps, ~2293 kbps avg, 0.221 bit/pixel
Аудио: MPEG Audio 2, 2 ch, 48 kHz, 192 kbps

Информация по редактированию

Topfield SRP-2410 – запись спутниковой трансляции DVB-S (.rec)
ProjectX 0.91.0.10 - разбор контейнера, удаление рекламы и доп. информации
MKVToolNix GUI 8.8.0 – сборка в контейнер MKV
MkvTagger – редактирование тегов

MediaInfo

Общее
Уникальный идентификатор : 215999645958732136793158178858528747956 (0xA28004C3D095285AB7A65F83075931B4)
Полное имя : [apreder]Stravinsky_in_Hollywood(2014)DVB.mkv
Формат : Matroska
Версия формата : Version 2
Размер файла : 939 Мбайт
Продолжительность : 51 м.
Режим общего битрейта : Переменный
Общий поток : 2535 Кбит/сек
Название фильма : Stravinsky in Hollywood
Дата выпуска : 2014-06-22
Дата кодирования : UTC 2016-02-21 11:55:13
Программа кодирования : mkvmerge v8.8.0 ('Wind at my back') 64bit
Библиотека кодирования : libebml v1.3.3 + libmatroska v1.4.4
Обложка : Yes
Attachments : cover.jpg / cover_small.jpg
DIRECTOR : Marco Capalbo
GENRE : Documentary
IMDB : tt3813336
KEYWORDS : rutracker.org
LAW_RATING : 12+
Видео
Идентификатор : 1
Формат : MPEG Video
Версия формата : Version 2
Профиль формата : Main@Main
Параметр BVOP формата : Да
Параметр матрицы формата : Выборочная
Параметр GOP формата : M=3, N=36
Format_Settings_PictureStructure : Frame
Идентификатор кодека : V_MPEG2
Идентификатор кодека/Информация : MPEG 1 or 2 Video
Продолжительность : 51 м.
Вид битрейта : Переменный
Битрейт : 2293 Кбит/сек
Ширина : 720 пикселей
Высота : 576 пикселей
Соотношение сторон : 4:3
Режим частоты кадров : Постоянный
Частота кадров : 25,000 кадров/сек
Стандарт вещания : PAL
Цветовое пространство : YUV
Субдискретизация насыщенности : 4:2:0
Битовая глубина : 8 бит
Тип развёртки : Чересстрочная
Порядок развёртки : Верхнее поле первое
Метод сжатия : С потерями
Бит/(Пиксели*Кадры) : 0.221
Временной код первого кадра : 00:00:00:00
Оригинал временного кода : Group of pictures header
Размер потока : 850 Мбайт (90%)
Default : Да
Forced : Нет
Аудио
Идентификатор : 2
Формат : MPEG Audio
Версия формата : Version 1
Профиль формата : Layer 2
Идентификатор кодека : A_MPEG/L2
Идентификатор кодека/Подсказка : MP2
Продолжительность : 51 м.
Вид битрейта : Постоянный
Битрейт : 192 Кбит/сек
Каналы : 2 канала
Частота : 48,0 КГц
Метод сжатия : С потерями
Размер потока : 71,1 Мбайт (8%)
Язык : Russian
Default : Да
Forced : Нет

Скриншоты


Резервные скриншоты


-
[teatrix.ru].t23048.torrent 
Торрент: Зарегистрирован [ 2016-03-21 00:34 ] · 6C589B24EEF13841031CE2C3F2F541B96AB6DAB1

Скачать .torrent

Скачать

19 KB

Статус: проверено
Скачан: 0 раз
Размер: 939 MB
terms.php



Быстрый ответ

Имя:

      
Для отправки сообщений необходимо включить JavaScript
Показать сообщения:    

Текущее время: 08-Дек 08:58

Часовой пояс: UTC + 3


Вы можете начинать темы
Вы можете отвечать на сообщения
Вы не можете редактировать свои сообщения
Вы не можете удалять свои сообщения
Вы не можете голосовать в опросах
Вы не можете прикреплять файлы к сообщениям
Вы можете скачивать файлы