Ингрид Бергман. Рассказ от первого лица / Ингрид Бергман: В её собственных словах / Ingrid Bergman in Her Own Words / Jag ar Ingrid (Стиг Бьёркман / Stig Bjorkman) [2015, Швеция, документальный, биографический, DVB] DVO (SDI Media)


Статистика раздачи [Обновить пиров]
Размер:  1.73 GB   |    Зарегистрирован:  9 месяцев 30 дней   |    Скачан:  2 раза

Полного источника не было: 3 месяца 4 дня

 
   
 
 
 

[Цитировать]

Ингрид Бергман. Рассказ от первого лица
Ingrid Bergman in Her Own Words- Страна: Швеция
Жанр: документальный, биографический
Год выпуска: 2015
Продолжительность: 01:47:48Перевод: Профессиональный (двухголосый закадровый) Студия "SDI Media" по заказу телеканала "24 ДОК"
Cубтитры: русские
Режиссер: Стиг Бьёркман / Stig Björkman
В ролях: Ингрид Бергман (Архив), Роберто Росселлини, Изабелла Росселлини, Пиа Линдстрём, Лив Ульман, Сигурни Уивер
Описание: Композитор: Майкл Найман / Michael Nyman.
Фильм, основанный на личных архивах семьи и интервью детей Ингрид, предлагает вниманию зрителей уникальный портрет великой актрисы с удивительной судьбой. Это история о главной кинодиве Швеции, актрисе Ингрид Бергман, рассказанная с помощью ее собственных дневников, архивных записей и пленок. В прошлом году Ингрид Бергман, могло бы исполниться 100 лет, и ее фотография украшала официальный плакат Каннского фестиваля, а фильм "Ингрид Бергман. От первого лица" стал специальным событием Канн. (анонс канала "24 ДОК")
Доп. информация: "24 ДОК", Eutelsat 36B (W7) DVB-S
Награды: премия "Золотой глаз" - особое упоминание за монтаж документального фильма Cannes Film Festival 2015 + номинация на премию "Золотой глаз" лучшему режиссеру документального фильма; приз за самый популярный иностранный документальный фильм Vancouver International Film Festival 2015.

Качество видео: DVB
Формат видео: MKV
Видео: MPEG Video 2, 720x576@768x576 (4:3), 25 fps, ~2055 kbps avg, 0.198 bit/pixel
Аудио: MPEG Audio 2, 2 ch, 48 kHz, 192 kbps
Формат субтитров: hardsub (неотключаемые)
Доп. информация о субтитрах: интертитры - замена видеоряда + форсированные

MediaInfo

Общее
Уникальный идентификатор : 235399145112986788571095946699677219961 (0xB11839EB3BBB767A801356A3522DBC79)
Полное имя : [apreder]Ingrid_Bergman_in_Her_Own_Words(2015)DVB.mkv
Формат : Matroska
Версия формата : Version 2
Размер файла : 1,73 Гбайт
Продолжительность : 1 ч. 47 м.
Режим общего битрейта : Переменный
Общий поток : 2293 Кбит/сек
Название фильма : Jag är Ingrid
Дата выпуска : 2015-08-28
Дата кодирования : UTC 2016-02-21 12:30:45
Программа кодирования : mkvmerge v8.8.0 ('Wind at my back') 64bit
Библиотека кодирования : libebml v1.3.3 + libmatroska v1.4.4
Обложка : Yes
Attachments : cover.jpg / cover_small.jpg
DIRECTOR : Stig Björkman
GENRE : Documentary
IMDB : tt4621016
KEYWORDS : rutracker.org
LAW_RATING : 16+
Видео
Идентификатор : 1
Формат : MPEG Video
Версия формата : Version 2
Профиль формата : Main@Main
Параметр BVOP формата : Да
Параметр матрицы формата : Выборочная
Параметр GOP формата : M=3, N=36
Format_Settings_PictureStructure : Frame
Идентификатор кодека : V_MPEG2
Идентификатор кодека/Информация : MPEG 1 or 2 Video
Продолжительность : 1 ч. 47 м.
Вид битрейта : Переменный
Битрейт : 2055 Кбит/сек
Ширина : 720 пикселей
Высота : 576 пикселей
Соотношение сторон : 4:3
Режим частоты кадров : Постоянный
Частота кадров : 25,000 кадров/сек
Стандарт вещания : PAL
Цветовое пространство : YUV
Субдискретизация насыщенности : 4:2:0
Битовая глубина : 8 бит
Тип развёртки : Чересстрочная
Порядок развёртки : Верхнее поле первое
Метод сжатия : С потерями
Бит/(Пиксели*Кадры) : 0.198
Временной код первого кадра : 00:00:00:00
Оригинал временного кода : Group of pictures header
Размер потока : 1,55 Гбайт (90%)
Default : Да
Forced : Нет
Аудио
Идентификатор : 2
Формат : MPEG Audio
Версия формата : Version 1
Профиль формата : Layer 2
Идентификатор кодека : A_MPEG/L2
Идентификатор кодека/Подсказка : MP2
Продолжительность : 1 ч. 47 м.
Вид битрейта : Постоянный
Битрейт : 192 Кбит/сек
Каналы : 2 канала
Частота : 48,0 КГц
Метод сжатия : С потерями
Размер потока : 148 Мбайт (8%)
Язык : Russian
Default : Да
Forced : Нет

Скриншот c названием фильма

Скриншоты


Резервные скриншоты


-
[teatrix.ru].t23052.torrent 
Торрент: Зарегистрирован [ 2016-03-21 00:34 ] · 5A2CD2C063E2ACC01C1DBC3AD1A2A598D400E255

Скачать .torrent

Скачать

18 KB

Статус: проверено
Скачан: 2 раз
Размер: 1.73 GB
terms.php



Быстрый ответ

Имя:

      
Для отправки сообщений необходимо включить JavaScript
Показать сообщения:    

Текущее время: 20-Янв 16:54

Часовой пояс: UTC + 3


Вы можете начинать темы
Вы можете отвечать на сообщения
Вы не можете редактировать свои сообщения
Вы не можете удалять свои сообщения
Вы не можете голосовать в опросах
Вы не можете прикреплять файлы к сообщениям
Вы можете скачивать файлы