Даниель Бёртц - Медея / Daniel Bortz - Medea (Emma Vetter, Karl-Magnus Fredriksson, Marianne Eklof, John Erik Eleby, Niklas Bjorling Rygert) (Patrik Ringborg / Stefan Larsson) [2016, Opera, HDTVRip 1080p] Sub [Swe, Eng, Ita.]


 

[Цитировать]

Daniel Börtz - Medea
Даниель Бёртц - МЕДЕЯ
___________________________________________________________
Год выпуска: 13-02-2016
Лейбл: Kungliga Operan
Страна-производитель: Sweden
Жанр: Opera Drama
Продолжительность:
00:03:21 + 01:02:00 + 01:01:00 + 00:11:45
Язык: Шведский
Перевод: Субтитры
Субтитры: Swedesh (.srt + hardsub),
Italian, Eng. - Google Translate
Режиссер/Хореограф: Stefan Larsson
Исполнители:
* Medea – Emma Vetter
* Jason – Karl-Magnus Fredriksson
* Nurse – Marianne Eklöf
* Child minder – Susann Végh
* King Creon – John Erik Eleby
* Aigeus – Niklas Björling Rygert
* Unknown young woman – Johanna Rudström
* Messenger – Jonas Malmsjö
* Medea's children – David Hofvander & Casper Rosendahl
Royal Opera Chorus & Orchestra
Дирижер: Patrik Ringborg
Greek tragedy by Euripides from 431 B.C.
Swedish interpretation - Agneta Pleijel / Jan Post
Sets - Rufus Didwiszus
Costumes and masks - Nina Sandström
Lighting design - Torben Lendorph
The world premiere at the Royal Swedish Opera, Stockholm, January 23, 2016
Качество видео: HDTVRip
Формат/Контейнер: MKV
Видео кодек: H.264
Аудио кодек: AC3
Видео поток: 1920x1080, 8000 kbps, 25.000 fps.
Аудио поток: Sweden, 384 kbps, 48 kHz, 6 ch

Скриншоты

~ Intro ~

~ Part I ~

~ Part II ~

~ Interviews ~

Synopsis (eng.)

I cry when I think of the act then awaits me.
I must crush Jason's house, I have to kill my children. And when I performed this, the most wicked act anyone can do, I flee the country and my punishment. Never again will he see the child he had with me. And never shall he beget new children with her. If I get no say, I'm weak. - From Medea
Medea, a mother who kills her own children, is one of world literature's most controversial figures. She has abandoned her own family, sacrificed everything for her husband Jason and arrived as a refugee in a new country. Once there, she left by Jason bitter may regret their unfaithfulness. In Daniel Börtz newly written opera is Euripides' ancient drama - modernized by Agneta Pleijel and Jan Post - an intense psychological experience where Medea's furious, bloody revenge is central.
Daniel Börtz is one of Sweden's most acclaimed and prolific composer and has written several operas before, including The Bacchae , which was built under the direction of Ingmar Bergman 1991.Medea was commissioned by the Royal Opera and directed by Stefan Larsson, theater manager at the Betty Nansen Teatret of Copenhagen . Medea is his debut as an opera director.

AKT 1
Medea with Jason fled from Colchis and find themselves as refugees in Corinth. Now Jason has broken up the marriage and left Medea and the children to marry King Creon's daughter. Medea is devastated. King Creon comes and announces that she and the children must immediately leave the country. He is afraid that Medea could harm his daughter.
Medea appeal and persuade Kreon be allowed to stay a single day to arrange a home for the children. Amman and the women of Corinth tries to console Medea is desperate. Jason comes and tries to gloss over what has happened, and says that the marriage will also benefit Medea and the children. Medea becomes furious and show him out.
Aegeus, Pandions son from Athens, has been with the oracle of Delphi to investigate how he can have children. Medea tells him that Jason left her and that she and the children banished from Corinth. She promises to help Aegeus against him to give her asylum in Athens. Aegeus accept and swear an oath to keep his promise to her.
Medea is now obsessed with revenge. Before she leaves the country, she should let their children send a wedding gift to the king's daughter, a veil and gold wreath coated with deadly poison. Then she'll kill the children. A worse revenge for Jason's infidelity is not. Amman and the other women dread her words.
AKT 2
Medea has asked Jason to come. She has now changed, she says, and accept that Jason will marry another. She wants him and his new wife to take care of the children. She suggests that the two sons shall send a gift to the bride. The gift will do the king's daughter sympathetic and Creon to let the children stay. Jason is surprised but relieved and agree to the proposal.
The sons returning from the palace and their carers tells us that the gifts surrendered and been well received. Medea will not listen. The act that she now has to perform the hardest and she hesitates.
A messenger arrives from the palace. He describes how Creon and his daughter died a painful death of Medea's poison, is now the guards on the way. He calls Medea to immediately leave the country. Medea listen quietly and let the messenger go. "What I will do is decided. Dead children, then escape. Delay I left the kids out to be murdered by a hand more cruel than mine: I do not want! "She goes out to the children, and shortly thereafter heard terrible screams from inside the house.
Unaware that the children are already dead will Jason to save them from King Creon's men. Amman tells us what happened. Jason could not at first comprehend what Amman says, but then falls into despair. Medea comes out of the house and Jason asks her to see and touch the children one last time. She replies that he will never touch her or their children again.

MediaInfoIntro

General
Unique ID : 97892101561022473285418144118586677168 (0x49A5553D9F65C41FF3CBFFAD733B17B0)
Complete name : Daniel Bortz - Medea (Stockholm 13 feb 2016) 1080 multi sub\1 Intro.mkv
Format : Matroska
Format version : Version 2
File size : 211 MiB
Duration : 3mn 30s
Overall bit rate : 8 404 Kbps
Writing application : HandBrake 0.10.1 2015030800
Writing library : Lavf55.12.0
Video
ID : 1
Format : AVC
Format/Info : Advanced Video Codec
Format profile : High@L4
Format settings, CABAC : Yes
Format settings, ReFrames : 4 frames
Codec ID : V_MPEG4/ISO/AVC
Duration : 3mn 30s
Bit rate : 8 000 Kbps
Width : 1 920 pixels
Height : 1 080 pixels
Display aspect ratio : 16:9
Frame rate mode : Constant
Frame rate : 25.000 fps
Color space : YUV
Chroma subsampling : 4:2:0
Bit depth : 8 bits
Scan type : Progressive
Bits/(Pixel*Frame) : 0.154
Stream size : 197 MiB (93%)
Writing library : x264 core 142 r2479 dd79a61
Encoding settings : cabac=1 / ref=2 / deblock=1:0:0 / analyse=0x3:0x113 / me=hex / subme=4 / psy=1 / psy_rd=1.00:0.00 / mixed_ref=0 / me_range=16 / chroma_me=1 / trellis=1 / 8x8dct=1 / cqm=0 / deadzone=21,11 / fast_pskip=1 / chroma_qp_offset=0 / threads=9 / lookahead_threads=2 / sliced_threads=0 / nr=0 / decimate=1 / interlaced=0 / bluray_compat=0 / constrained_intra=0 / bframes=3 / b_pyramid=2 / b_adapt=1 / b_bias=0 / direct=1 / weightb=1 / open_gop=0 / weightp=1 / keyint=250 / keyint_min=25 / scenecut=40 / intra_refresh=0 / rc_lookahead=20 / rc=abr / mbtree=1 / bitrate=8000 / ratetol=1.0 / qcomp=0.60 / qpmin=0 / qpmax=69 / qpstep=4 / ip_ratio=1.40 / aq=1:1.00
Default : Yes
Forced : No
Color range : Limited
Color primaries : BT.709
Transfer characteristics : BT.709
Matrix coefficients : BT.709
Audio
ID : 2
Format : AC-3
Format/Info : Audio Coding 3
Mode extension : CM (complete main)
Format settings, Endianness : Big
Codec ID : A_AC3
Duration : 3mn 30s
Bit rate mode : Constant
Bit rate : 384 Kbps
Channel(s) : 6 channels
Channel positions : Front: L C R, Side: L R, LFE
Sampling rate : 48.0 KHz
Compression mode : Lossy
Stream size : 9.66 MiB (5%)
Title : Surround
Default : Yes
Forced : No

Part I

General
Unique ID : 15011675032781204921117689281252126097 (0xB4B24B8E246F2EA53CDA85FA62B6D91)
Complete name : Daniel Bortz - Medea (Stockholm 13 feb 2016) 1080 multi sub\2 Part I.mkv
Format : Matroska
Format version : Version 2
File size : 3.66 GiB
Duration : 1h 2mn
Overall bit rate : 8 350 Kbps
Writing application : HandBrake 0.10.1 2015030800
Writing library : Lavf55.12.0
Video
ID : 1
Format : AVC
Format/Info : Advanced Video Codec
Format profile : High@L4
Format settings, CABAC : Yes
Format settings, ReFrames : 4 frames
Codec ID : V_MPEG4/ISO/AVC
Duration : 1h 2mn
Bit rate : 8 000 Kbps
Width : 1 920 pixels
Height : 1 080 pixels
Display aspect ratio : 16:9
Frame rate mode : Constant
Frame rate : 25.000 fps
Color space : YUV
Chroma subsampling : 4:2:0
Bit depth : 8 bits
Scan type : Progressive
Bits/(Pixel*Frame) : 0.154
Stream size : 3.42 GiB (93%)
Writing library : x264 core 142 r2479 dd79a61
Encoding settings : cabac=1 / ref=2 / deblock=1:0:0 / analyse=0x3:0x113 / me=hex / subme=4 / psy=1 / psy_rd=1.00:0.00 / mixed_ref=0 / me_range=16 / chroma_me=1 / trellis=1 / 8x8dct=1 / cqm=0 / deadzone=21,11 / fast_pskip=1 / chroma_qp_offset=0 / threads=9 / lookahead_threads=2 / sliced_threads=0 / nr=0 / decimate=1 / interlaced=0 / bluray_compat=0 / constrained_intra=0 / bframes=3 / b_pyramid=2 / b_adapt=1 / b_bias=0 / direct=1 / weightb=1 / open_gop=0 / weightp=1 / keyint=250 / keyint_min=25 / scenecut=40 / intra_refresh=0 / rc_lookahead=20 / rc=abr / mbtree=1 / bitrate=8000 / ratetol=1.0 / qcomp=0.60 / qpmin=0 / qpmax=69 / qpstep=4 / ip_ratio=1.40 / aq=1:1.00
Default : Yes
Forced : No
Color range : Limited
Color primaries : BT.709
Transfer characteristics : BT.709
Matrix coefficients : BT.709
Audio
ID : 2
Format : AC-3
Format/Info : Audio Coding 3
Mode extension : CM (complete main)
Format settings, Endianness : Big
Codec ID : A_AC3
Duration : 1h 2mn
Bit rate mode : Constant
Bit rate : 384 Kbps
Channel(s) : 6 channels
Channel positions : Front: L C R, Side: L R, LFE
Sampling rate : 48.0 KHz
Compression mode : Lossy
Stream size : 172 MiB (5%)
Title : Surround
Default : Yes
Forced : No

Part II

General
Unique ID : 272731178818250406172045351051316339937 (0xCD2E1D49AC45B28AFF68BD290AD6A4E1)
Complete name : Daniel Bortz - Medea (Stockholm 13 feb 2016) 1080 multi sub\4 Part II.mkv
Format : Matroska
Format version : Version 2
File size : 3.64 GiB
Duration : 1h 1mn
Overall bit rate : 8 405 Kbps
Writing application : HandBrake 0.10.1 2015030800
Writing library : Lavf55.12.0
Video
ID : 1
Format : AVC
Format/Info : Advanced Video Codec
Format profile : High@L4
Format settings, CABAC : Yes
Format settings, ReFrames : 4 frames
Codec ID : V_MPEG4/ISO/AVC
Duration : 1h 1mn
Bit rate : 8 000 Kbps
Width : 1 920 pixels
Height : 1 080 pixels
Display aspect ratio : 16:9
Frame rate mode : Constant
Frame rate : 25.000 fps
Color space : YUV
Chroma subsampling : 4:2:0
Bit depth : 8 bits
Scan type : Progressive
Bits/(Pixel*Frame) : 0.154
Stream size : 3.40 GiB (93%)
Writing library : x264 core 142 r2479 dd79a61
Encoding settings : cabac=1 / ref=2 / deblock=1:0:0 / analyse=0x3:0x113 / me=hex / subme=4 / psy=1 / psy_rd=1.00:0.00 / mixed_ref=0 / me_range=16 / chroma_me=1 / trellis=1 / 8x8dct=1 / cqm=0 / deadzone=21,11 / fast_pskip=1 / chroma_qp_offset=0 / threads=9 / lookahead_threads=2 / sliced_threads=0 / nr=0 / decimate=1 / interlaced=0 / bluray_compat=0 / constrained_intra=0 / bframes=3 / b_pyramid=2 / b_adapt=1 / b_bias=0 / direct=1 / weightb=1 / open_gop=0 / weightp=1 / keyint=250 / keyint_min=25 / scenecut=40 / intra_refresh=0 / rc_lookahead=20 / rc=abr / mbtree=1 / bitrate=8000 / ratetol=1.0 / qcomp=0.60 / qpmin=0 / qpmax=69 / qpstep=4 / ip_ratio=1.40 / aq=1:1.00
Default : Yes
Forced : No
Color range : Limited
Color primaries : BT.709
Transfer characteristics : BT.709
Matrix coefficients : BT.709
Audio
ID : 2
Format : AC-3
Format/Info : Audio Coding 3
Mode extension : CM (complete main)
Format settings, Endianness : Big
Codec ID : A_AC3
Duration : 1h 1mn
Bit rate mode : Constant
Bit rate : 384 Kbps
Channel(s) : 6 channels
Channel positions : Front: L C R, Side: L R, LFE
Sampling rate : 48.0 KHz
Compression mode : Lossy
Stream size : 170 MiB (5%)
Title : Surround
Default : Yes
Forced : No

Interviews

General
Unique ID : 35652720806159259287704441811615506322 (0x1AD276D9BD64E408AC4B1786BE425F92)
Complete name : Daniel Bortz - Medea (Stockholm 13 feb 2016) 1080 multi sub\3 Interviews.mkv
Format : Matroska
Format version : Version 2
File size : 698 MiB
Duration : 11mn 45s
Overall bit rate : 8 292 Kbps
Writing application : HandBrake 0.10.1 2015030800
Writing library : Lavf55.12.0
Video
ID : 1
Format : AVC
Format/Info : Advanced Video Codec
Format profile : High@L4
Format settings, CABAC : Yes
Format settings, ReFrames : 4 frames
Codec ID : V_MPEG4/ISO/AVC
Duration : 11mn 45s
Bit rate : 8 000 Kbps
Width : 1 920 pixels
Height : 1 080 pixels
Display aspect ratio : 16:9
Frame rate mode : Constant
Frame rate : 25.000 fps
Color space : YUV
Chroma subsampling : 4:2:0
Bit depth : 8 bits
Scan type : Progressive
Bits/(Pixel*Frame) : 0.154
Stream size : 651 MiB (93%)
Writing library : x264 core 142 r2479 dd79a61
Encoding settings : cabac=1 / ref=2 / deblock=1:0:0 / analyse=0x3:0x113 / me=hex / subme=4 / psy=1 / psy_rd=1.00:0.00 / mixed_ref=0 / me_range=16 / chroma_me=1 / trellis=1 / 8x8dct=1 / cqm=0 / deadzone=21,11 / fast_pskip=1 / chroma_qp_offset=0 / threads=9 / lookahead_threads=2 / sliced_threads=0 / nr=0 / decimate=1 / interlaced=0 / bluray_compat=0 / constrained_intra=0 / bframes=3 / b_pyramid=2 / b_adapt=1 / b_bias=0 / direct=1 / weightb=1 / open_gop=0 / weightp=1 / keyint=250 / keyint_min=25 / scenecut=40 / intra_refresh=0 / rc_lookahead=20 / rc=abr / mbtree=1 / bitrate=8000 / ratetol=1.0 / qcomp=0.60 / qpmin=0 / qpmax=69 / qpstep=4 / ip_ratio=1.40 / aq=1:1.00
Default : Yes
Forced : No
Color range : Limited
Color primaries : BT.709
Transfer characteristics : BT.709
Matrix coefficients : BT.709
Audio
ID : 2
Format : AC-3
Format/Info : Audio Coding 3
Mode extension : CM (complete main)
Format settings, Endianness : Big
Codec ID : A_AC3
Duration : 11mn 45s
Bit rate mode : Constant
Bit rate : 384 Kbps
Channel(s) : 6 channels
Channel positions : Front: L C R, Side: L R, LFE
Sampling rate : 48.0 KHz
Compression mode : Lossy
Stream size : 32.3 MiB (5%)
Title : Surround
Default : Yes
Forced : No
****
With thanks to the original uploader –
ginofamussa
.



Показать сообщения:    

Текущее время: 21-Янв 11:35

Часовой пояс: UTC + 3


Вы не можете начинать темы
Вы не можете отвечать на сообщения
Вы не можете редактировать свои сообщения
Вы не можете удалять свои сообщения
Вы не можете голосовать в опросах
Вы не можете прикреплять файлы к сообщениям
Вы не можете скачивать файлы