Под электрическими облаками (Алексей Герман мл.) [2015, Россия, Польша, Украина, драма, WEB-DLRip]


Статистика раздачи [Обновить пиров]
Размер:  2.05 GB   |    Зарегистрирован:  8 месяцев 13 дней   |    Скачан:  0 раз

Полного источника не было: Никогда

 
   
 
 
 

[Цитировать]

Под электрическими облаками
Страна: Россия, Польша, Украина
Жанр: драма
Год выпуска: 2015
Продолжительность: 02:17:05

Режиссер: Алексей Герман мл.
В ролях: Мераб Нинидзе, Анастасия Мельникова, Чулпан Хаматова, Вениамин Кац, Петр Гасовский, Константин Зелигер, Виктор Бугаков, Виктория Короткова, Луис Франк, Карим Пакачаков, Мария Цап-Страшилина, Анастасия Фомина, Мария Олейникова, Филипп Дьячков, Рамиль Салахутдинов, Алексей Вертинский, Сергей Сипливый, Ирина Соколова, Владимир Раннев, Дмитрий Воздвиженский.

Описание: Действие фильма происходит в 2017 году. Мир находится в ожидании большой войны. Герои фильма живут совершенно разными жизнями, но каждый из них принадлежит к тем, кого в классической русской литературе называют «лишними людьми». Это история об их жизни, преодолениях и борьбе. Это также история одного недостроенного здания, вокруг которого оказались разбросаны их судьбы.
Семь новелл, вошедших в картину «Под электрическими облаками», — это попытка режиссера взглянуть на его собственное поколение глазами «людей будущего». Все герои фильма словно заброшены сюда из девятнадцатого века. Они терзаются, ищут собственный путь и ломают судьбы под влиянием обстоятельств. Они — те самые герои произведений Чехова, Куприна, Бунина, но только постаревшие на пару веков. Это мечтатели и романтики, зажатые тисками цензуры и морали, лишенные самой возможности жить свободно по праву своего рождения. Изначально среди прототипов главных героев были люди, лично знакомые режиссеру, а сама история была посвящена лишь одному центральному персонажу. Но по мере создания сценария стало ясно: героям тесно в рамках общей истории. В итоге на свет появилось семь отдельных сюжетных линий, мастерски вплетенных в канву общего повествования.
Предощущение войны — глобальной катастрофы, способной навсегда изменить этот мир — словно заставляет героев, задуматься о быстротечности бытия. Они совершенно не похожи друг на друга. Разные жизни, разные судьбы, но каждому из них кажется, что всё ещё можно повернуть вспять. Проблема лишь в том, что там, где для одних сокрыта правда, другие видят лишь ложный смысл. Каждому из них придётся буквально вслепую искать свой собственный путь. Что ждёт героев впереди? И есть ли будущее у тех, для кого уже завтра этот мир может перестать существовать?
Сэмпл: http://sendfile.su/1206277
Качество видео: WEB-DLRip
Формат видео: AVI
Видео: XviD, 720x304 (2.35:1), 1681 kb/s, 23.976 fps
Аудио: AC3, 44.1 Khz, 448 kbps (2 ch)

MI

Format : AVI
Format/Info : Audio Video Interleave
Format profile : OpenDML
File size : 2.05 GiB
Duration : 2h 17mn
Overall bit rate : 2 141 Kbps
Writing application : VirtualDubMod 1.5.10.2 (build 2540/release)
Writing library : VirtualDubMod build 2540/release
Video
ID : 0
Format : MPEG-4 Visual
Format profile : Advanced Simple@L5
Format settings, BVOP : 2
Format settings, QPel : No
Format settings, GMC : No warppoints
Format settings, Matrix : Custom
Codec ID : XVID
Codec ID/Hint : XviD
Duration : 2h 17mn
Bit rate : 1 681 Kbps
Width : 720 pixels
Height : 304 pixels
Display aspect ratio : 2.35:1
Frame rate : 23.976 fps
Color space : YUV
Chroma subsampling : 4:2:0
Bit depth : 8 bits
Scan type : Progressive
Compression mode : Lossy
Bits/(Pixel*Frame) : 0.320
Stream size : 1.61 GiB (79%)
Writing library : XviD 1.2.1 (UTC 2008-12-04)
Audio
ID : 1
Format : AC-3
Format/Info : Audio Coding 3
Mode extension : CM (complete main)
Format settings, Endianness : Big
Codec ID : 2000
Duration : 2h 17mn
Bit rate mode : Constant
Bit rate : 448 Kbps
Channel(s) : 2 channels
Channel positions : Front: L R
Sampling rate : 44.1 KHz
Bit depth : 16 bits
Compression mode : Lossy
Stream size : 439 MiB (21%)
Alignment : Split accross interleaves
Interleave, duration : 42 ms (1.00 video frame)
Interleave, preload duration : 500 ms

Скриншоты

[teatrix.ru].t23060.torrent 
Торрент: Зарегистрирован [ 2016-03-21 00:33 ] · A6409CC22449BF17FDFF4E47BA675E1C4572760E

Скачать .torrent

Скачать

11 KB

Статус: проверено
Скачан: 0 раз
Размер: 2.05 GB
terms.php



Быстрый ответ

Имя:

      
Для отправки сообщений необходимо включить JavaScript
Показать сообщения:    

Текущее время: 03-Дек 01:20

Часовой пояс: UTC + 3


Вы можете начинать темы
Вы можете отвечать на сообщения
Вы не можете редактировать свои сообщения
Вы не можете удалять свои сообщения
Вы не можете голосовать в опросах
Вы не можете прикреплять файлы к сообщениям
Вы можете скачивать файлы