(Classical) Christoph Nichelmann - Harpsichord Sonatas - Michele Benuzzi - 2015, FLAC (image+.cue) lossless


 

[Цитировать]

Christoph Nichelmann - Harpsichord Sonatas - Michele Benuzzi
Жанр: Classical
Год издания диска: 2015
Издатель (лейбл): Brilliant Classics
Номер по каталогу: 94809
Дата записи: 2014
Аудиокодек: FLAC
Тип рипа: image+.cue
Битрейт аудио: lossless
Продолжительность: 2:11:47
Источник: собственный рип
Наличие сканов в содержимом раздачи: да
Треклист:
Christoph Nichelmann (1717-1762)
Harpsichord Sonatas

CD1

[1]-[3] Sonata in G minor, Op.1 No.1
[4]-[6] Sonata in D major, Op.1 No.2
[7]-[9] Sonata in B minor, Op.1 No.3
[10]-[12] Sonata in G major, Op.1 No.4
[13]-[15] Sonata in C minor, Op.1 No.5
[16]-[18] Sonata in F major, Op.1 No.6

CD2

[1]-[3] Sonata in B flat major, Op.2 No.1
[4]-[6] Sonata in F minor, Op.2 No.2
[7]-[9] Sonata in A major, Op.2 No.3
[10]-[12] Sonata in D minor, Op.2 No.4
[13]-[15] Sonata in E flat major, Op.2 No.5
[16]-[18] Sonata in A minor, Op.2 No.6
Исполнители:
Michele Benuzzi harpsichord

Лог создания рипа: CD1

Exact Audio Copy V1.1 from 23. June 2015
EAC extraction logfile from 6. December 2015, 18:36
Michele Benuzzi / Nichelmann - Harpsichord Sonatas - CD1
Used drive : HL-DT-STDVDRAM GU70N Adapter: 1 ID: 0
Read mode : Secure
Utilize accurate stream : Yes
Defeat audio cache : Yes
Make use of C2 pointers : No
Read offset correction : 48
Overread into Lead-In and Lead-Out : No
Fill up missing offset samples with silence : Yes
Delete leading and trailing silent blocks : No
Null samples used in CRC calculations : Yes
Used interface : Native Win32 interface for Win NT & 2000
Used output format : User Defined Encoder
Selected bitrate : 128 kBit/s
Quality : High
Add ID3 tag : No
Command line compressor : C:\Program Files (x86)\Exact Audio Copy\Flac\flac.exe
Additional command line options : -V -8 -T "Date=%year%" -T "Genre=%genre%" %source%
TOC of the extracted CD
Track | Start | Length | Start sector | End sector
---------------------------------------------------------
1 | 0:00.00 | 4:31.06 | 0 | 20330
2 | 4:31.06 | 3:41.08 | 20331 | 36913
3 | 8:12.14 | 3:10.37 | 36914 | 51200
4 | 11:22.51 | 4:10.44 | 51201 | 69994
5 | 15:33.20 | 2:12.51 | 69995 | 79945
6 | 17:45.71 | 4:53.29 | 79946 | 101949
7 | 22:39.25 | 5:49.40 | 101950 | 128164
8 | 28:28.65 | 2:12.07 | 128165 | 138071
9 | 30:40.72 | 3:13.59 | 138072 | 152605
10 | 33:54.56 | 4:29.42 | 152606 | 172822
11 | 38:24.23 | 2:04.55 | 172823 | 182177
12 | 40:29.03 | 5:29.32 | 182178 | 206884
13 | 45:58.35 | 7:02.42 | 206885 | 238576
14 | 53:01.02 | 2:41.68 | 238577 | 250719
15 | 55:42.70 | 3:34.51 | 250720 | 266820
16 | 59:17.46 | 5:53.64 | 266821 | 293359
17 | 65:11.35 | 3:10.60 | 293360 | 307669
18 | 68:22.20 | 4:17.19 | 307670 | 326963
Range status and errors
Selected range
Filename C:\temp\Nichelmann - Harpsichord Sonatas\CD1\Nichelmann - Harpsichord Sonatas - CD1.wav
Peak level 93.2 %
Extraction speed 2.2 X
Range quality 99.9 %
Test CRC C1FDEC5A
Copy CRC C1FDEC5A
Copy OK
No errors occurred
AccurateRip summary
Track 1 accurately ripped (confidence 1) [EA09DE80] (AR v2)
Track 2 accurately ripped (confidence 1) [C03875D8] (AR v2)
Track 3 accurately ripped (confidence 1) [1AD51C65] (AR v2)
Track 4 accurately ripped (confidence 1) [E36127CD] (AR v2)
Track 5 accurately ripped (confidence 1) [9E5FA413] (AR v2)
Track 6 accurately ripped (confidence 1) [911A7554] (AR v2)
Track 7 accurately ripped (confidence 1) [FB6541E4] (AR v2)
Track 8 accurately ripped (confidence 1) [C0CA6119] (AR v2)
Track 9 accurately ripped (confidence 1) [FC13C557] (AR v2)
Track 10 accurately ripped (confidence 1) [99911FE4] (AR v2)
Track 11 accurately ripped (confidence 1) [60D00B2C] (AR v2)
Track 12 accurately ripped (confidence 1) [59A61F0F] (AR v2)
Track 13 accurately ripped (confidence 1) [328FB0B2] (AR v2)
Track 14 accurately ripped (confidence 1) [3059DA77] (AR v2)
Track 15 accurately ripped (confidence 1) [123E2313] (AR v2)
Track 16 accurately ripped (confidence 1) [F0DBB812] (AR v2)
Track 17 accurately ripped (confidence 1) [2155BC96] (AR v2)
Track 18 accurately ripped (confidence 1) [A7BD6CE3] (AR v2)
All tracks accurately ripped
End of status report
==== Log checksum 7A7D2F28795968D192D7A5B2C5583C178ABB3A8AE373F96F6AE1C14D625F9942 ====

Лог создания рипа: CD2

Exact Audio Copy V1.1 from 23. June 2015
EAC extraction logfile from 6. December 2015, 19:10
Michele Benuzzi / Nichelmann - Harpsichord Sonatas - CD2
Used drive : HL-DT-STDVDRAM GU70N Adapter: 1 ID: 0
Read mode : Secure
Utilize accurate stream : Yes
Defeat audio cache : Yes
Make use of C2 pointers : No
Read offset correction : 48
Overread into Lead-In and Lead-Out : No
Fill up missing offset samples with silence : Yes
Delete leading and trailing silent blocks : No
Null samples used in CRC calculations : Yes
Used interface : Native Win32 interface for Win NT & 2000
Used output format : User Defined Encoder
Selected bitrate : 128 kBit/s
Quality : High
Add ID3 tag : No
Command line compressor : C:\Program Files (x86)\Exact Audio Copy\Flac\flac.exe
Additional command line options : -V -8 -T "Date=%year%" -T "Genre=%genre%" %source%
TOC of the extracted CD
Track | Start | Length | Start sector | End sector
---------------------------------------------------------
1 | 0:00.00 | 3:44.34 | 0 | 16833
2 | 3:44.34 | 2:45.32 | 16834 | 29240
3 | 6:29.66 | 3:01.38 | 29241 | 42853
4 | 9:31.29 | 3:58.06 | 42854 | 60709
5 | 13:29.35 | 1:47.10 | 60710 | 68744
6 | 15:16.45 | 3:01.35 | 68745 | 82354
7 | 18:18.05 | 4:07.74 | 82355 | 100953
8 | 22:26.04 | 2:43.70 | 100954 | 113248
9 | 25:09.74 | 4:07.47 | 113249 | 131820
10 | 29:17.46 | 3:09.45 | 131821 | 146040
11 | 32:27.16 | 2:56.19 | 146041 | 159259
12 | 35:23.35 | 3:18.32 | 159260 | 174141
13 | 38:41.67 | 3:12.24 | 174142 | 188565
14 | 41:54.16 | 1:32.26 | 188566 | 195491
15 | 43:26.42 | 3:56.36 | 195492 | 213227
16 | 47:23.03 | 6:24.64 | 213228 | 242091
17 | 53:47.67 | 1:42.56 | 242092 | 249797
18 | 55:30.48 | 3:38.08 | 249798 | 266155
Range status and errors
Selected range
Filename C:\temp\Nichelmann - Harpsichord Sonatas\CD2\Nichelmann - Harpsichord Sonatas - CD2.wav
Peak level 90.4 %
Extraction speed 5.0 X
Range quality 99.9 %
Test CRC 621D6401
Copy CRC 621D6401
Copy OK
No errors occurred
AccurateRip summary
Track 1 accurately ripped (confidence 1) [F4560107] (AR v2)
Track 2 accurately ripped (confidence 1) [8E381923] (AR v2)
Track 3 accurately ripped (confidence 1) [7D492EC1] (AR v2)
Track 4 accurately ripped (confidence 1) [E2F103CF] (AR v2)
Track 5 accurately ripped (confidence 1) [B0BEE95C] (AR v2)
Track 6 accurately ripped (confidence 1) [044D84F2] (AR v2)
Track 7 accurately ripped (confidence 1) [34F0AEDA] (AR v2)
Track 8 accurately ripped (confidence 1) [7299AAC2] (AR v2)
Track 9 accurately ripped (confidence 1) [CE4652DD] (AR v2)
Track 10 accurately ripped (confidence 1) [EEE5460D] (AR v2)
Track 11 accurately ripped (confidence 1) [2B355047] (AR v2)
Track 12 accurately ripped (confidence 1) [3F20DFE6] (AR v2)
Track 13 accurately ripped (confidence 1) [18D7E4DE] (AR v2)
Track 14 accurately ripped (confidence 1) [3F742DE7] (AR v2)
Track 15 accurately ripped (confidence 1) [17E3CCA8] (AR v2)
Track 16 accurately ripped (confidence 1) [1E1410DD] (AR v2)
Track 17 accurately ripped (confidence 1) [D74BF8FD] (AR v2)
Track 18 accurately ripped (confidence 1) [8C9D4060] (AR v2)
All tracks accurately ripped
End of status report
==== Log checksum 2A3CD8A03DDADFFB4635A2BA3B0F17032C896E100349B6C08D03730E903451E4 ====



Показать сообщения:    

Текущее время: 05-Дек 05:27

Часовой пояс: UTC + 3


Вы не можете начинать темы
Вы не можете отвечать на сообщения
Вы не можете редактировать свои сообщения
Вы не можете удалять свои сообщения
Вы не можете голосовать в опросах
Вы не можете прикреплять файлы к сообщениям
Вы не можете скачивать файлы