Бьорк / Bjork! (Тита фон Харденберг / Tita von Hardenberg) [2015, документальный, музыка, DVB] DVO (Лексикон)


Статистика раздачи [Обновить пиров]
Размер:  907 MB   |    Зарегистрирован:  8 месяцев 18 дней   |    Скачан:  3 раза

Полного источника не было: 3 дня

 
   
 
 
 

[Цитировать]

Бьорк
Björk!- Дата/Год выпуска: 2015
Страна: Германия
Жанр: документальный, музыка
Продолжительность: 00:54:27
Перевод: Профессиональный (двухголосый закадровый)
Доп. инфо о переводе: Студия "Лексикон" по заказу телеканала "24 ДОК"
Режиссер: Тита фон Харденберг / Tita von Hardenberg
Телеканал: 24 ДОКОписание: Вступительное слово ведущих радиостанции "Серебряный дождь" Михаила Козырева и Льва Ганкина.
В 2015 году исландская певица Бьорк отпраздновала свой 50-летний юбилей и была удостоена большой ретроспективы в Музее современного искусства в Нью-Йорке. Она работает на пересечении художественных жанров и меняет сам процесс создания музыки. Уже три десятилетия она создаёт незабываемые музыкальные видео, а ее стиль вдохновляет миллионы людей по всему миру на творчество и эксперименты. (анонс канала "24 ДОК")
Доп. информация: Eutelsat 36B (W7) DVB-S

качество: DVB
формат: MKV
Видео: MPEG Video 2, 720x576 (4:3), 25 fps, ~2090 kbps avg, 0.202 bit/pixel
Аудио: MPEG Audio 2, 2 ch, 48 kHz, 192 kbps

Информация по редактированию

Topfield SRP-2410 – запись спутниковой трансляции DVB-S (.rec)
ProjectX 0.91.0.10 - разбор контейнера, удаление рекламы и доп. информации
MKVToolNix GUI 8.8.0 – сборка в контейнер MKV
MkvTagger – редактирование тегов

MediaInfo

Общее
Уникальный идентификатор : 223169105149993533982848361212358027308 (0xA7E4CE64E552B1CEB2A764F28589E82C)
Полное имя : F:\My Torrents 3\[apreder]Bjork(2015)DVB.mkv
Формат : Matroska
Версия формата : Version 2
Размер файла : 907 Мбайт
Продолжительность : 54 м.
Режим общего битрейта : Переменный
Общий поток : 2329 Кбит/сек
Название фильма : Björk!
Дата выпуска : 2015-10-17
Дата кодирования : UTC 2016-02-21 16:00:57
Программа кодирования : mkvmerge v8.8.0 ('Wind at my back') 64bit
Библиотека кодирования : libebml v1.3.3 + libmatroska v1.4.4
Обложка : Yes
Attachments : cover.jpg / cover_small.jpg
DIRECTOR : Tita von Hardenberg
GENRE : Documentary
IMDB : tt5370752
KEYWORDS : rutracker.org
LAW_RATING : 16+
Видео
Идентификатор : 1
Формат : MPEG Video
Версия формата : Version 2
Профиль формата : Main@Main
Параметр BVOP формата : Да
Параметр матрицы формата : Выборочная
Параметр GOP формата : Variable
Format_Settings_PictureStructure : Frame
Идентификатор кодека : V_MPEG2
Идентификатор кодека/Информация : MPEG 1 or 2 Video
Продолжительность : 54 м.
Вид битрейта : Переменный
Битрейт : 2090 Кбит/сек
Ширина : 720 пикселей
Высота : 576 пикселей
Соотношение сторон : 4:3
Режим частоты кадров : Постоянный
Частота кадров : 25,000 кадров/сек
Стандарт вещания : PAL
Цветовое пространство : YUV
Субдискретизация насыщенности : 4:2:0
Битовая глубина : 8 бит
Тип развёртки : Чересстрочная
Порядок развёртки : Верхнее поле первое
Метод сжатия : С потерями
Бит/(Пиксели*Кадры) : 0.202
Временной код первого кадра : 00:00:00:00
Оригинал временного кода : Group of pictures header
Размер потока : 814 Мбайт (90%)
Default : Да
Forced : Нет
Аудио
Идентификатор : 2
Формат : MPEG Audio
Версия формата : Version 1
Профиль формата : Layer 2
Идентификатор кодека : A_MPEG/L2
Идентификатор кодека/Подсказка : MP2
Продолжительность : 54 м.
Вид битрейта : Постоянный
Битрейт : 192 Кбит/сек
Каналы : 2 канала
Частота : 48,0 КГц
Метод сжатия : С потерями
Размер потока : 74,8 Мбайт (8%)
Язык : Russian
Default : Да
Forced : Нет

Скриншоты


Резервные скриншоты


-
[teatrix.ru].t23062.torrent 
Торрент: Зарегистрирован [ 2016-03-21 00:33 ] · 47D2422BB15CA6BCF3254A2B4BDA4661AC40C0D8

Скачать .torrent

Скачать

18 KB

Статус: проверено
Скачан: 3 раз
Размер: 907 MB
terms.php



Быстрый ответ

Имя:

      
Для отправки сообщений необходимо включить JavaScript
Показать сообщения:    

Текущее время: 08-Дек 01:16

Часовой пояс: UTC + 3


Вы можете начинать темы
Вы можете отвечать на сообщения
Вы не можете редактировать свои сообщения
Вы не можете удалять свои сообщения
Вы не можете голосовать в опросах
Вы не можете прикреплять файлы к сообщениям
Вы можете скачивать файлы