[SACD-R][OF] Fritz Reiner, Chicago Symphony Orchestra - Festival (Мусоргский, Бородин, Кабалевский, Глинка, Чайковский) - 1960/2016 (Classical, Orchestral)


Статистика раздачи [Обновить пиров]
Размер:  2.44 GB   |    Зарегистрирован:  8 месяцев 15 дней   |    Скачан:  1 раз

Полного источника не было: 4 месяца 27 дней

 
   
 
 
 

[Цитировать]

Fritz Reiner, Chicago Symphony Orchestra
Festival
- Формат записи/Источник записи: [SACD-R][OF]
Наличие водяных знаков: Нет
Год издания/переиздания диска: 1960/2016
Жанр: Classical, Orchestral
Издатель(лейбл): RCA Victor Living Stereo / Analogue Productions
Продолжительность: 00:37:35
Наличие сканов в содержимом раздачи: Нет-Треклист:
1. Colas Breugnon, Op.24: Overture - Kabalevsky (Кабалевский: Кола Брюньон)
2. Marche slave - Tchaikovsky (Чайковский: Славянский марш)
3. Prince Igor: Act III: Polovski March - Borodin (Бородин: Князь Игорь - Половецкий марш)
4. A Night on Bare Mountain - Moussorgsky (Мусоргский: Ночь на Лысой горе)
5. Marche miniature (from Suite No. 1 in D Minor, Op.43 - Tchaikovsky (Чайковский: Оркестровая сюита No.1 - Миниатюрный марш)
6. Russian and Ludmilla: Overture - Glinka (Глинка: Руслан и Людмила - увертюра)-Контейнер: ISO (*.iso)
Тип рипа: image
Разрядность: 64(2,8 MHz/1 Bit)
Формат: DST64
Количество каналов: 5.0, 2.0
Доп. информация: CAPC 2423 SA EAN: 753088242366
Release date: 11.1.2016
Remastered by Ryan Smith at Sterling Sound from the original analog 3-track tapes!

Об альбоме (сборнике)

A collection of Russian orchestral favorites, including one of the best versions of "Night On Bare Mountain." Fritz Reiner conducts the mighty Chicago Symphony Orchestra.
http://sa-cd.net/showtitle/9975
http://store.acousticsounds.com/d/91659/Fritz_Reiner-Festival-Hybrid_3-Channel_Stereo_SACD

DR 9/12

foobar2000 1.3.8 / Замер динамического диапазона (DR) 1.1.1
Дата отчёта: 2016-02-21 20:34:15
--------------------------------------------------------------------------------
Анализ: Fritz Reiner - Chicago Symphony Orchestra / Festival
--------------------------------------------------------------------------------
DR Пики RMS Продолжительность трека
--------------------------------------------------------------------------------
DR6 -6.16 дБ -26.08 дБ 4:46 01-Colas Breugnan, Op. 24: Overture
DR6 -4.64 дБ -23.80 дБ 10:29 02-Marche Slave
DR6 -4.82 дБ -24.42 дБ 4:46 03-Prince Igor: Act III: Polovski March
DR7 -5.45 дБ -26.11 дБ 10:13 04-A Night On Bare Mountain
DR9 -20.11 дБ -43.11 дБ 2:04 05-Marche Miniature (From Suite No. 1 In D Minor, Op. 43)
DR17 -6.41 дБ -24.28 дБ 5:16 06-Russlan and Ludmilla: Overture
--------------------------------------------------------------------------------
Количество треков: 6
Реальные значения DR: DR9
Частота: 2822400 Гц / Частота PCM: 88200 Гц
Каналов: 5
Разрядность: 24
Битрейт: 14112 кбит/с
Кодек: DST64
================================================================================
--------------------------------------------------------------------------------
Анализ: Fritz Reiner - Chicago Symphony Orchestra / Festival
--------------------------------------------------------------------------------
DR Пики RMS Продолжительность трека
--------------------------------------------------------------------------------
DR12 -5.58 дБ -22.75 дБ 4:46 01-Colas Breugnan, Op. 24: Overture
DR12 -4.15 дБ -20.38 дБ 10:29 02-Marche Slave
DR12 -4.18 дБ -21.07 дБ 4:46 03-Prince Igor: Act III: Polovski March
DR12 -4.37 дБ -22.62 дБ 10:13 04-A Night On Bare Mountain
DR15 -19.44 дБ -39.21 дБ 2:04 05-Marche Miniature (From Suite No. 1 In D Minor, Op. 43)
DR11 -4.76 дБ -20.82 дБ 5:16 06-Russlan and Ludmilla: Overture
--------------------------------------------------------------------------------
Количество треков: 6
Реальные значения DR: DR12
Частота: 2822400 Гц / Частота PCM: 88200 Гц
Каналов: 2
Разрядность: 24
Битрейт: 5645 кбит/с
Кодек: DSD64
================================================================================
[teatrix.ru].t23063.torrent 
Торрент: Зарегистрирован [ 2016-03-21 00:33 ] · A10771A635C68C23FADF221E75866F3BB619F9BC

Скачать .torrent

Скачать

25 KB

Статус: проверено
Скачан: 1 раз
Размер: 2.44 GB
terms.php



Быстрый ответ

Имя:

      
Для отправки сообщений необходимо включить JavaScript
Показать сообщения:    

Текущее время: 05-Дек 19:40

Часовой пояс: UTC + 3


Вы можете начинать темы
Вы можете отвечать на сообщения
Вы не можете редактировать свои сообщения
Вы не можете удалять свои сообщения
Вы не можете голосовать в опросах
Вы не можете прикреплять файлы к сообщениям
Вы можете скачивать файлы