Леонид Куравлев. Афоня и Другие (Георгий Ананов) [2016, Документальный, HDTVRip-AVC]


Статистика раздачи [Обновить пиров]
Размер:  669 MB   |    Зарегистрирован:  8 месяцев 17 дней   |    Скачан:  0 раз

Полного источника не было: Никогда

 
   
 
 
 

[Цитировать]

Леонид Куравлев. Афоня и Другие- Дата/Год выпуска: 2016
Страна: Первый Канала HD | ООО "Контраст"
Жанр: Документальный
Продолжительность: 0:49:36
Режиссер: Георгий Ананов-Описание: У Леонида Куравлёва богатая фильмография – почти двести ролей. Но ни Жоржем Милославским, ни Хомой Брутом, ни Робинзоном его на улице не называют. А вот Афоней – запросто. Нередко актёры перед съёмками специально погружаются в среду, которая описана в сценарии. Если предстоит играть хирурга - часами стоят в операционной, если учителя – сидят на уроках в школе. Леониду Куравлёву не пришлось погружаться. "Создавать себя алкоголиком не пришлось. Я из очень простых корней, я москвич, но на окраине жил у тетки - рядом с Измайловым.-Автор рипа: lrn
Автор записи: GeneralFilm
Сэмпл: sendfile-Тип релиза: HDTVRip-AVC
Контейнер: MKV
Видео: 1024x576 (16:9), 25,000 fps, H264, ~1500 kbps avg, ~0.102 bit/pixel
Аудио: 48 kHz, AC3 Dolby Digital, 3/2 (L,C,R,l,r) + LFE ch, ~384.00 kbps avg-

MediaInfo

General
Unique ID : 227062863824543586162186447837537991093 (0xAAD2B784C77EABFE8C435A4E8C1F79B5)
Complete name : E:\uTorrent.Temp\Temp\Leonid.Kuravlev.Afonya.i.Drugie.2016.HDTVRip-AVC.x264-lrn.mkv
Format : Matroska
Format version : Version 4 / Version 2
File size : 669 MiB
Duration : 49mn 36s
Overall bit rate : 1 886 Kbps
Movie name : Leonid.Kuravlev.Afonya.i.Drugie.2016.HDTVRip-AVC.x264-lrn
Encoded date : UTC 2010-02-22 21:41:31
Writing application : mkvmerge v5.9.0 ('On The Loose') built on Dec 9 2012 15:37:01
Writing library : libebml v1.3.0 + libmatroska v1.4.0
Video
ID : 1
Format : AVC
Format/Info : Advanced Video Codec
Format profile : High@L4.1
Format settings, CABAC : Yes
Format settings, ReFrames : 8 frames
Codec ID : V_MPEG4/ISO/AVC
Duration : 49mn 36s
Bit rate : 1 500 Kbps
Width : 1 024 pixels
Height : 576 pixels
Display aspect ratio : 16:9
Frame rate mode : Constant
Frame rate : 25.000 fps
Color space : YUV
Chroma subsampling : 4:2:0
Bit depth : 8 bits
Scan type : Progressive
Bits/(Pixel*Frame) : 0.102
Stream size : 520 MiB (78%)
Writing library : x264 core 148 r2638 7599210
Encoding settings : cabac=1 / ref=8 / deblock=1:-3:-3 / analyse=0x3:0x133 / me=umh / subme=9 / psy=1 / psy_rd=1.00:0.00 / mixed_ref=1 / me_range=32 / chroma_me=1 / trellis=2 / 8x8dct=1 / cqm=0 / deadzone=21,11 / fast_pskip=1 / chroma_qp_offset=-2 / threads=12 / lookahead_threads=2 / sliced_threads=0 / nr=0 / decimate=1 / interlaced=0 / bluray_compat=0 / constrained_intra=0 / bframes=8 / b_pyramid=2 / b_adapt=2 / b_bias=0 / direct=3 / weightb=1 / open_gop=0 / weightp=2 / keyint=250 / keyint_min=25 / scenecut=40 / intra_refresh=0 / rc_lookahead=50 / rc=2pass / mbtree=1 / bitrate=1500 / ratetol=1.0 / qcomp=0.60 / qpmin=0 / qpmax=69 / qpstep=4 / cplxblur=20.0 / qblur=0.5 / vbv_maxrate=62500 / vbv_bufsize=78125 / nal_hrd=none / filler=0 / ip_ratio=1.40 / aq=1:1.00
Default : Yes
Forced : No
Statistics Tags Issue : mkvmerge v8.5.2 ('Crosses') 32bit 2016-02-21 15:57:42 / mkvmerge v5.9.0 ('On The Loose') built on Dec 9 2012 15:37:01 2010-02-22 21:41:31
FromStats_BitRate : 1499827
FromStats_Duration : 00:49:36.920000000
FromStats_FrameCount : 74423
FromStats_StreamSize : 558108456
Audio
ID : 2
Format : AC-3
Format/Info : Audio Coding 3
Mode extension : CM (complete main)
Format settings, Endianness : Big
Codec ID : A_AC3
Duration : 49mn 36s
Bit rate mode : Constant
Bit rate : 384 Kbps
Channel(s) : 6 channels
Channel positions : Front: L C R, Side: L R, LFE
Sampling rate : 48.0 KHz
Frame rate : 31.250 fps (1536 spf)
Compression mode : Lossy
Stream size : 136 MiB (20%)
Language : Russian
Default : Yes
Forced : No

x264 log

raw [info]: 1024x576p 1:1 @ 25/1 fps (cfr)
x264 [info]: using SAR=1/1
x264 [info]: using cpu capabilities: MMX2 SSE2Fast SSSE3 SSE4.2 AVX
x264 [info]: profile High, level 4.1
x264 [info]: frame I:566 Avg QP:17.14 size: 62434
x264 [info]: frame P:19498 Avg QP:20.27 size: 16775
x264 [info]: frame B:54359 Avg QP:23.40 size: 3600
x264 [info]: consecutive B-frames: 2.5% 3.9% 6.3% 67.5% 8.4% 9.6% 0.9% 0.8% 0.1%
x264 [info]: mb I I16..4: 8.1% 79.8% 12.1%
x264 [info]: mb P I16..4: 1.3% 7.1% 0.6% P16..4: 46.0% 15.2% 12.9% 0.4% 0.1% skip:16.3%
x264 [info]: mb B I16..4: 0.1% 0.6% 0.0% B16..8: 33.6% 5.0% 1.1% direct: 3.1% skip:56.6% L0:39.0% L1:49.9% BI:11.1%
x264 [info]: 8x8 transform intra:79.3% inter:71.6%
x264 [info]: direct mvs spatial:97.7% temporal:2.3%
x264 [info]: coded y,uvDC,uvAC intra: 75.5% 69.6% 30.2% inter: 15.2% 17.8% 0.6%
x264 [info]: i16 v,h,dc,p: 30% 17% 7% 47%
x264 [info]: i8 v,h,dc,ddl,ddr,vr,hd,vl,hu: 14% 11% 6% 8% 12% 13% 12% 12% 13%
x264 [info]: i4 v,h,dc,ddl,ddr,vr,hd,vl,hu: 15% 11% 3% 8% 13% 14% 13% 11% 12%
x264 [info]: i8c dc,h,v,p: 37% 26% 21% 16%
x264 [info]: Weighted P-Frames: Y:3.6% UV:1.4%
x264 [info]: ref P L0: 53.6% 13.6% 16.3% 4.6% 4.1% 2.9% 2.9% 1.8% 0.2% 0.0%
x264 [info]: ref B L0: 84.6% 8.7% 3.1% 1.4% 1.0% 0.7% 0.4%
x264 [info]: ref B L1: 96.2% 3.8%
x264 [info]: kb/s:1499.83
encoded 74423 frames, 29.15 fps, 1499.83 kb/s

Скриншоты

-
[teatrix.ru].t23064.torrent 
Торрент: Зарегистрирован [ 2016-03-21 00:33 ] · 8032C1D97C952B4560E850BA7A2C29F2F9363CD4

Скачать .torrent

Скачать

14 KB

Статус: проверено
Скачан: 0 раз
Размер: 669 MB
terms.php



Быстрый ответ

Имя:

      
Для отправки сообщений необходимо включить JavaScript
Показать сообщения:    

Текущее время: 07-Дек 11:38

Часовой пояс: UTC + 3


Вы можете начинать темы
Вы можете отвечать на сообщения
Вы не можете редактировать свои сообщения
Вы не можете удалять свои сообщения
Вы не можете голосовать в опросах
Вы не можете прикреплять файлы к сообщениям
Вы можете скачивать файлы