[SACD-R][OF] Thomas Sondergard, BBC National Orchestra of Wales - Jean Sibelius: Symphonies 2, 7 - 2014 (Classical, Orchestral)


Статистика раздачи [Обновить пиров]
Размер:  3.37 GB   |    Зарегистрирован:  8 месяцев 15 дней   |    Скачан:  0 раз

Полного источника не было: Никогда

 
   
 
 
 

[Цитировать]

Thomas Søndergård (Sondergard), BBC National Orchestra of Wales
Jean Sibelius: Symphonies 2 & 7
- Формат записи/Источник записи: [SACD-R][OF]
Наличие водяных знаков: Нет
Год издания/переиздания диска: 2014
Жанр: Classical, Orchestral
Издатель(лейбл): Linn Records
Продолжительность: 01:02:23
Наличие сканов в содержимом раздачи: Да-Треклист:
Jean Sibelius
Symphony No. 2 in D Major, Op. 43:

1. I. Allegretto 09:29
2. II. Tempo Andante, ma rubato 13:51
3. III. Vivacissimo 05:55
4. IV. Finale: Allegro moderato 12:38
Symphony No. 7 in C major, Op.105:
5. Adagio – Vivacissimo – Allegro moderato 20:33-BBC National Orchestra of Wales
Thomas Søndergård (Sondergard), conductor-Контейнер: ISO (*.iso)
Тип рипа: image
Разрядность: 64(2,8 MHz/1 Bit)
Формат: DST64
Количество каналов: 5.1, 2.0
Доп. информация: CKD 462
http://sa-cd.net/showtitle/10487
http://www.linnrecords.com/recording-sibelius-symphonies-2-7.aspx
AMG: "The comparatively lush orchestration of the Symphony No. 2 probably has never sounded better in any recorded format"

DR 15/14

foobar2000 1.3.8 / Замер динамического диапазона (DR) 1.1.1
Дата отчёта: 2016-02-17 02:03:20
--------------------------------------------------------------------------------
Анализ: Thomas Sondergard & BBC National Orchestra of Wales / Sibelius: Symphonies 2 & 7
--------------------------------------------------------------------------------
DR Пики RMS Продолжительность трека
--------------------------------------------------------------------------------
DR15 -6.99 дБ -31.42 дБ 9:29 01-Symphony No. 2, Op. 43 - I. Allegretto
DR15 -3.14 дБ -29.86 дБ 13:51 02-Symphony No. 2, Op. 43 - II. Tempo Andante, ma rubato
DR14 -6.10 дБ -31.15 дБ 5:55 03-Symphony No. 2, Op. 43 - III. Vivacissimo
DR13 -3.59 дБ -27.21 дБ 12:39 04-Symphony No. 2, Op. 43 - IV. Finale: Allegro moderato
DR16 -4.28 дБ -32.30 дБ 20:33 05-Symphony No. 7, Op. 105
--------------------------------------------------------------------------------
Количество треков: 5
Реальные значения DR: DR15
Частота: 2822400 Гц / Частота PCM: 88200 Гц
Каналов: 6
Разрядность: 24
Битрейт: 16934 кбит/с
Кодек: DST64
================================================================================
--------------------------------------------------------------------------------
Анализ: Thomas Sondergard & BBC National Orchestra of Wales / Sibelius: Symphonies 2 & 7
--------------------------------------------------------------------------------
DR Пики RMS Продолжительность трека
--------------------------------------------------------------------------------
DR14 -4.24 дБ -24.64 дБ 9:29 01-Symphony No. 2, Op. 43 - I. Allegretto
DR14 -3.48 дБ -23.08 дБ 13:51 02-Symphony No. 2, Op. 43 - II. Tempo Andante, ma rubato
DR14 -4.42 дБ -24.18 дБ 5:55 03-Symphony No. 2, Op. 43 - III. Vivacissimo
DR11 -3.21 дБ -20.40 дБ 12:39 04-Symphony No. 2, Op. 43 - IV. Finale: Allegro moderato
DR16 -3.66 дБ -25.51 дБ 20:33 05-Symphony No. 7, Op. 105
--------------------------------------------------------------------------------
Количество треков: 5
Реальные значения DR: DR14
Частота: 2822400 Гц / Частота PCM: 88200 Гц
Каналов: 2
Разрядность: 24
Битрейт: 5645 кбит/с
Кодек: DST64
================================================================================
[teatrix.ru].t23065.torrent 
Торрент: Зарегистрирован [ 2016-03-21 00:33 ] · 503F9555F97AEFF6E5E865B0B4E470A51234E533

Скачать .torrent

Скачать

35 KB

Статус: проверено
Скачан: 0 раз
Размер: 3.37 GB
terms.php



Быстрый ответ

Имя:

      
Для отправки сообщений необходимо включить JavaScript
Показать сообщения:    

Текущее время: 05-Дек 17:34

Часовой пояс: UTC + 3


Вы можете начинать темы
Вы можете отвечать на сообщения
Вы не можете редактировать свои сообщения
Вы не можете удалять свои сообщения
Вы не можете голосовать в опросах
Вы не можете прикреплять файлы к сообщениям
Вы можете скачивать файлы