Чудовище (Алексей Антонов) [1999, Россия, авторская анимация, экранизация, WEBRip]


 

[Цитировать]

Чудовище
Страна: Россия
Жанр: авторская анимация, экранизация
Год выпуска: 1999
Продолжительность: 00:02:34
Cубтитры: нет
Режиссёр: Алексей Антонов
Описание: Экранизация стихотворения Велимира Хлебникова. Текст читает Алексей Хвостенко под аккомпанемент группы "Аукцыон".
Доп. информация: Приз за лучший дебют на фестивале "Annecy" (1999)
Качество видео: WEBRip
Формат видео: AVI
Видео: 885 kbps, 592х432 (1.370), 25.000 fps, MPEG-4 Visual (XviD)
Аудио: 128 kbps, 44.1 kHz, 2 channels, MPEG Audio (MP3)

MediaInfo

General
Complete name : Чудовище (1999).avi
Format : AVI
Format/Info : Audio Video Interleave
File size : 18.8 MiB
Duration : 2mn 34s
Overall bit rate : 1 022 Kbps
Writing library : VirtualDub build 35491/release
Video
ID : 0
Format : MPEG-4 Visual
Format profile : Advanced Simple@L4
Format settings, BVOP : 2
Format settings, QPel : No
Format settings, GMC : No warppoints
Format settings, Matrix : Default (H.263)
Codec ID : XVID
Codec ID/Hint : XviD
Duration : 2mn 34s
Bit rate : 885 Kbps
Width : 592 pixels
Height : 432 pixels
Display aspect ratio : 1.370
Frame rate : 25.000 fps
Color space : YUV
Chroma subsampling : 4:2:0
Bit depth : 8 bits
Scan type : Progressive
Compression mode : Lossy
Bits/(Pixel*Frame) : 0.138
Stream size : 16.3 MiB (87%)
Writing library : XviD 64
Audio
ID : 1
Format : MPEG Audio
Format version : Version 1
Format profile : Layer 3
Mode : Joint stereo
Mode extension : MS Stereo
Codec ID : 55
Codec ID/Hint : MP3
Duration : 2mn 34s
Bit rate mode : Constant
Bit rate : 128 Kbps
Channel(s) : 2 channels
Sampling rate : 44.1 KHz
Compression mode : Lossy
Stream size : 2.35 MiB (12%)
Alignment : Split accross interleaves
Interleave, duration : 40 ms (1.00 video frame)
Interleave, preload duration : 501 ms

Скриншот c названием фильма

Скриншоты




Показать сообщения:    

Текущее время: 09-Дек 10:51

Часовой пояс: UTC + 3


Вы не можете начинать темы
Вы не можете отвечать на сообщения
Вы не можете редактировать свои сообщения
Вы не можете удалять свои сообщения
Вы не можете голосовать в опросах
Вы не можете прикреплять файлы к сообщениям
Вы не можете скачивать файлы