Париж принадлежит нам / Paris nous appartient / Paris Belongs to Us / Paris Is Ours (Жак Риветт / Jacques Rivette) [1961, Франция, детектив, DVB] Original (Fre) + Sub (Rus, Eng, Fre, Deu)


Статистика раздачи [Обновить пиров]
Размер:  3.44 GB   |    Зарегистрирован:  8 месяцев 17 дней   |    Скачан:  0 раз

Полного источника не было: Никогда

 
   
 
 
 

[Цитировать]

Париж принадлежит нам
Paris nous appartient- Страна: Франция
Жанр: детектив
Год выпуска: 1961
Продолжительность: 02:15:38Перевод: Субтитры (русский перевод И.Безлюдной, Éclair Media)
Cубтитры: русские, английские, французские, немецкие, нидерландские, румынские
Оригинальная аудиодорожка: французский
Режиссер: Жак Риветт / Jacques Rivette
В ролях: Бетти Шнайдер / Betty Schneider (Anne Goupil), Джани Эспозито / Giani Esposito (Gerard Lenz), Жан-Клод Бриали / Jean-Claude Brialy (Jean-Marc), Франсуаз Прево / Françoise Prévost (Terry Yordan), Даниэль Кроэм / Daniel Crohem (Philip Kaufman), Жан-Люк Годар / Jean-Luc Godard (Un homme à la terrasse), Клод Шаброль / Claude Chabrol (Un homme à la party), Жак Деми / Jacques Demy (L'ami de la femme attachée), Жак Риветт / Jacques Rivette (Romanian man at the party)
Описание: Сценарий Жана Грюо / Jean Gruault.
Париж, 1957 год. Анн Гупиль — студентка литературного факультета. Ее старший брат Пьер берет ее с собой на вечеринку, которую устраивает его друг. На вечеринке она узнает про смерть одного из их друзей Хуана, который покончил с собой. Позже ей намекают про то, что это вовсе не самоубийство и такая же участь ждет всех его друзей.
Доп. информация: Hot Bird (13.0°E) TV5MONDE Europe DVB-S
Награда: премия Sutherland Trophy за самый оригинальный фильм года British Film Institute Awards 1962.

Качество видео: DVB
Формат видео: TS
Видео: MPEG Video 2, 720x576@1024x576 (16:9), 25 fps, ~3262 kbps avg, 0.315 bit/pixel
Аудио: MPEG Audio 2, 2 ch, 48 kHz, 192 kbps - французский
Формат субтитров: PGS

MediaInfo

Общее
Идентификатор : 1 (0x1)
Полное имя : F:\My Torrents 3\[apreder]Paris_nous_appartient(1961)DVB.ts
Формат : MPEG-TS
Размер файла : 3,44 Гбайт
Продолжительность : 2 ч. 15 м.
Режим общего битрейта : Переменный
Общий поток : 3635 Кбит/сек
Максимальный общий битрейт : 35,5 Мбит/сек
Видео
Идентификатор : 4113 (0x1011)
Идентификатор меню : 1 (0x1)
Формат : MPEG Video
Версия формата : Version 2
Профиль формата : Main@Main
Параметр BVOP формата : Да
Параметр матрицы формата : Выборочная
Параметр GOP формата : Variable
Format_Settings_PictureStructure : Frame
Идентификатор кодека : 2
Продолжительность : 2 ч. 15 м.
Вид битрейта : Переменный
Битрейт : 3262 Кбит/сек
Ширина : 720 пикселей
Высота : 576 пикселей
Соотношение сторон : 16:9
Частота кадров : 25,000 кадров/сек
Стандарт вещания : PAL
Цветовое пространство : YUV
Субдискретизация насыщенности : 4:2:0
Битовая глубина : 8 бит
Тип развёртки : Чересстрочная
Порядок развёртки : Верхнее поле первое
Метод сжатия : С потерями
Бит/(Пиксели*Кадры) : 0.315
Временной код первого кадра : 00:00:00:00
Оригинал временного кода : Group of pictures header
Размер потока : 3,09 Гбайт (90%)
Аудио
Идентификатор : 4352 (0x1100)
Идентификатор меню : 1 (0x1)
Формат : MPEG Audio
Версия формата : Version 1
Профиль формата : Layer 2
Идентификатор кодека : 4
Продолжительность : 2 ч. 15 м.
Вид битрейта : Постоянный
Битрейт : 192 Кбит/сек
Каналы : 2 канала
Частота : 48,0 КГц
Метод сжатия : С потерями
Размер потока : 186 Мбайт (5%)
Язык : French
Текст #1
Идентификатор : 4608 (0x1200)
Идентификатор меню : 1 (0x1)
Формат : PGS
Идентификатор кодека : 144
Продолжительность : 2 ч. 15 м.
Задержка видео : 23 с.
Язык : Russian
Текст #2
Идентификатор : 4609 (0x1201)
Идентификатор меню : 1 (0x1)
Формат : PGS
Идентификатор кодека : 144
Продолжительность : 2 ч. 15 м.
Задержка видео : 23 с.
Язык : English
Текст #3
Идентификатор : 4610 (0x1202)
Идентификатор меню : 1 (0x1)
Формат : PGS
Идентификатор кодека : 144
Язык : French
Текст #4
Идентификатор : 4611 (0x1203)
Идентификатор меню : 1 (0x1)
Формат : PGS
Идентификатор кодека : 144
Продолжительность : 2 ч. 15 м.
Задержка видео : 23 с.
Язык : German
Текст #5
Идентификатор : 4612 (0x1204)
Идентификатор меню : 1 (0x1)
Формат : PGS
Идентификатор кодека : 144
Продолжительность : 2 ч. 15 м.
Задержка видео : 23 с.
Язык : Dutch
Текст #6
Идентификатор : 4613 (0x1205)
Идентификатор меню : 1 (0x1)
Формат : PGS
Идентификатор кодека : 144
Продолжительность : 2 ч. 15 м.
Задержка видео : 24 с.
Язык : Romanian

Скриншот c названием фильма

Скриншоты


Резервные скриншоты


-
[teatrix.ru].t23067.torrent 
Торрент: Зарегистрирован [ 2016-03-21 00:33 ] · 326AA19A389C2114D74BE436CB9E23380B851EF7

Скачать .torrent

Скачать

18 KB

Статус: проверено
Скачан: 0 раз
Размер: 3.44 GB
terms.php



Быстрый ответ

Имя:

      
Для отправки сообщений необходимо включить JavaScript
Показать сообщения:    

Текущее время: 07-Дек 15:32

Часовой пояс: UTC + 3


Вы можете начинать темы
Вы можете отвечать на сообщения
Вы не можете редактировать свои сообщения
Вы не можете удалять свои сообщения
Вы не можете голосовать в опросах
Вы не можете прикреплять файлы к сообщениям
Вы можете скачивать файлы